Loading...
Error

Скачать Конец нашего света / Koniec naszego swiata (Ванда Якубовска) [1963, военная драма, DVDRip] [DUB] торрент без регистрации

 
Статистика раздачи
Размер:  2,17 GB   |    Скачан:  147 раз

Полного источника не было: 30 минут

 
Автор Сообщение

leon030982

[] 

Конец нашего света / Koniec naszego swiata
Страна: Польша
Жанр: Военная драма
Год выпуска: 1963
Продолжительность: 01:12:05+01:06:57
Перевод: Профессиональный (дублированный)
Cубтитры: нет
Режиссер: Ванда Якубовска

В ролях: Жан Адамаски, Петр Августиняк, Аркадиуш Базак, Александр Беднаж, Ежи Биньчицкий, Тадеуш Богуцкий, Владислав Гломбик, Антони Юраш, Фердинанд Матысик, Ежи Новак, Лех Сколимовский, Эльжбета Старостецка, Януш Сыкутера, Тадеуш Теолорчик, Тереза Вичиньска, Мечислав Вишневски

Описание: Фильм состоит из двух серий. Предельно правдиво и эмоционально жестко рассказывает о судьбе простого польского интеллигента чудом пережившего многомесячное заключение в одном из самых страшных фашистских лагерей смерти в Освенциме. Шокирующая документальность переданная в форме свидетельского показания об ужасах, царивших в нацистских застенках содержит страстное обвинение гитлеровских преступлений.

Сэмпл: http://multi-up.com/669356
Качество видео: DVDRip
Формат видео: AVI
Видео: XviD build 50, 688x304 (2.26:1), 25 fps, ~ 2000 kbps avg
Аудио: AC3 Dolby Digital, 48 kHz, 2/0 (L,R) ch, 192 kbps avg
General
Complete name : D:\НА РУТРЕКЕР\Konec.nashego.sveta.(2.serii.iz.2).1963.XviD.DVDRip-Dego\Konec.nashego.sveta.(1.seriya.iz.2).1963.XviD.DVDRip-Dego.avi
Format : AVI
Format/Info : Audio Video Interleave
File size : 1.09 GiB
Duration : 1h 12mn
Overall bit rate : 2 157 Kbps
Writing application : VirtualDubMod 1.5.10.2 (build 2540/release)
Writing library : VirtualDubMod build 2540/release
Video
ID : 0
Format : MPEG-4 Visual
Format profile : AdvancedSimple@L5
Format settings, BVOP : Yes
Format settings, QPel : No
Format settings, GMC : No warppoints
Format settings, Matrix : Default (MPEG)
Codec ID : XVID
Codec ID/Hint : XviD
Duration : 1h 12mn
Bit rate : 1 955 Kbps
Width : 688 pixels
Height : 304 pixels
Display aspect ratio : 2.25
Frame rate : 25.000 fps
Resolution : 24 bits
Colorimetry : 4:2:0
Scan type : Progressive
Bits/(Pixel*Frame) : 0.374
Stream size : 1 008 MiB (91%)
Writing library : XviD 1.2.1 (UTC 2008-12-04)
Audio
ID : 1
Format : AC-3
Format/Info : Audio Coding 3
Codec ID : 2000
Duration : 1h 12mn
Bit rate mode : Constant
Bit rate : 192 Kbps
Channel(s) : 2 channels
Channel positions : L R
Sampling rate : 48.0 KHz
Stream size : 99.0 MiB (9%)
Alignment : Split accross interleaves
Interleave, duration : 40 ms (1.00 video frame)
Interleave, preload duration : 500 ms
General
Complete name : D:\НА РУТРЕКЕР\Konec.nashego.sveta.(2.serii.iz.2).1963.XviD.DVDRip-Dego\Konec.nashego.sveta.(2.seriya.iz.2).1963.XviD.DVDRip-Dego.avi
Format : AVI
Format/Info : Audio Video Interleave
File size : 1.09 GiB
Duration : 1h 6mn
Overall bit rate : 2 322 Kbps
Writing application : VirtualDubMod 1.5.10.2 (build 2540/release)
Writing library : VirtualDubMod build 2540/release
Video
ID : 0
Format : MPEG-4 Visual
Format profile : AdvancedSimple@L5
Format settings, BVOP : Yes
Format settings, QPel : No
Format settings, GMC : No warppoints
Format settings, Matrix : Default (MPEG)
Codec ID : XVID
Codec ID/Hint : XviD
Duration : 1h 6mn
Bit rate : 2 120 Kbps
Width : 688 pixels
Height : 304 pixels
Display aspect ratio : 2.25
Frame rate : 25.000 fps
Resolution : 24 bits
Colorimetry : 4:2:0
Scan type : Progressive
Bits/(Pixel*Frame) : 0.405
Stream size : 1 015 MiB (91%)
Writing library : XviD 1.2.1 (UTC 2008-12-04)
Audio
ID : 1
Format : AC-3
Format/Info : Audio Coding 3
Codec ID : 2000
Duration : 1h 6mn
Bit rate mode : Constant
Bit rate : 192 Kbps
Channel(s) : 2 channels
Channel positions : L R
Sampling rate : 48.0 KHz
Stream size : 91.9 MiB (8%)
Alignment : Split accross interleaves
Interleave, duration : 40 ms (1.00 video frame)
Interleave, preload duration : 500 ms



Скачать Конец.нашего.света.Koniec.naszego.swiata.(Ванда.Якубовска).[1963.военная.драма.DVDRip].[DUB].torrent без регистрации
Золото ЗОЛОТАЯ РАЗДАЧА! СКАЧАННОЕ НЕ ЗАСЧИТЫВАЕТСЯ! Золото
Дата: Зарегистрирован   [ Тип: внутренний ] Как тут cкачать?
MAGNET ссылка
MAGNET ссылка


Скачать .torrent

12 KB

Статус: проверено DHT
Скачан: торрент - 147 раз, раздача полностью - 10 раз
Размер: 2,17 GB
Оценка:  - (Голосов: 0)
Поблагодарили: 1
Поделиться ссылкой на эту раздачу с друзьями:
В контактеFacebookОдноклассникиTwitterLivejournalМой МирLiveinternet
 

 
Показать сообщения:    


Вы не можете начинать темы
Вы не можете отвечать на сообщения
Вы не можете редактировать свои сообщения
Вы не можете удалять свои сообщения
Вы не можете голосовать в опросах
Вы не можете прикреплять файлы к сообщениям
Вы можете скачивать файлы