Loading...
Error

/ Joe Kidd ( ) [1972, , HDTVRip] [MVO]

 
1,44 GB   |    :  153
1  [  0 KB/s  ]  
 

leon030982

[] 

/ Joe Kidd

If you're looking for trouble - - - he's JOE KIDD

: 1972
:
:
:
MPAA:
: 01:23:53
: ()
:
:
/ Clint Eastwood, / Robert Duvall, / John Saxon, / Don Stroud, / Stella Garcia, / James Wainwright
:
, . , : .
, , . . , - . .

: Red
: 6.98
(296 votes)
IMDB: 6.3 (5650 votes)
: HDTVRip( / HDTV / 720p)
: AVI
: XviD, 720x304 (2.35:1), 2250 kbps (0.411 b/px), 25.00 fps
: MP3, 192 kbps (CBR), 48.0 KHz, 2 ch

:

General
Format : AVI
Format/Info : Audio Video Interleave
File size : 1.44 GiB
Duration : 1h 23mn
Overall bit rate : 2 451 Kbps
Writing application : VirtualDubMod 1.5.10.2 (build 2540/release)
Writing library : VirtualDubMod build 2540/release
Video
ID : 0
Format : MPEG-4 Visual
Format profile : Advanced Simple@L5
Format settings, BVOP : 2
Format settings, QPel : No
Format settings, GMC : No warppoints
Format settings, Matrix : Default (H.263)
Codec ID : XVID
Codec ID/Hint : XviD
Duration : 1h 23mn
Bit rate : 2 250 Kbps
Width : 720 pixels
Height : 304 pixels
Display aspect ratio : 2.35:1
Frame rate : 25.000 fps
Color space : YUV
Chroma subsampling : 4:2:0
Bit depth : 8 bits
Scan type : Progressive
Compression mode : Lossy
Bits/(Pixel*Frame) : 0.411
Stream size : 1.32 GiB (92%)
Writing library : XviD 1.2.0.dev47 (UTC 2006-11-01)
Audio
ID : 1
Format : MPEG Audio
Format version : Version 1
Format profile : Layer 3
Codec ID : 55
Codec ID/Hint : MP3
Duration : 1h 23mn
Bit rate mode : Constant
Bit rate : 192 Kbps
Channel(s) : 2 channels
Sampling rate : 48.0 KHz
Compression mode : Lossy
Stream size : 115 MiB (8%)
Alignment : Aligned on interleaves
Interleave, duration : 40 ms (1.00 video frame)
Interleave, preload duration : 504 ms



..Joe.Kidd.(.).[1972..HDTVRip].[MVO].torrent
  ! ! 
:   [ : ] c?
MAGNET
MAGNET


.torrent

15 KB

: DHT
: - 153 , - 31
: 1,44 GB
- (: 0)
: 1
:
 FacebookTwitterLivejournal Liveinternet
 

 
: