Loading...
Error

Скачать К нам, англичаночки! / К нам, маленькие англичанки! / A nous les petites Anglaises! (Мишель Ланг) [1976, комедия, мелодрама, DVDRip] [DVO] торрент без регистрации

 
Статистика раздачи
Размер:  1,47 GB   |    Скачан:  154 раза
Сидов:  1  [  0 KB/s  ]  
 
Автор Сообщение

leon030982

[] 

К нам, англичаночки! / К нам, маленькие англичанки! / A nous les petites Anglaises!
Страна: Франция
Жанр: Комедия, мелодрама
Год выпуска: 1976
Продолжительность: 01:44:46
Перевод: Профессиональный (двухголосый закадровый)
Cубтитры: нет
Оригинальная аудиодорожка: французский
Режиссер: Мишель Ланг
В ролях: Реми Лоран, Стефани Ийель, Вероник Дельбур, Софи Баржак, Жюли Нёбер, Райна О’Грейди, Айна Валле, Брижит Беллак, Мишель Мелки, Беатрис Сен-Марк

Описание:Провалив экзамен по английскому, юные французы Ален и Жан-Пьер отправляются на каникулы вместо планировавшегося Сан-Тропеза в Великобританию. Там они стараются не пропускать ни одной симпатичной девушки в Рэмсгейте в то славное лето 1959 года.


Доп. информация:
Релиз

КАК ВСЕГДА БОЛЬШОЕ СПАСИБО:
Рип найден на просторах интернета. Звуковую дорогу удалось найти, помогла Ingigerda
.
Ее мастерски очистил от шумов и синхронизировал с французским оригиналом alex7691
.

Качество видео: DVDRip
Формат видео: AVI
Видео: 640x384 (1.67:1), 25 fps, XviD build 46 ~1476 kbps avg, 0.24 bit/pixel
Аудио: 48 kHz, MPEG Layer 3, 2 ch, ~128.00 kbps avg
Аудио 2: 48 kHz, AC3 Dolby Digital, 2/0 (L,R) ch, ~384 kbps
Фильм переведен киностудией Фильмэкспорт по заказу телерадиокомпании "Останкино".
Перевод: Сергей Серегин.
Режиссер: Татьяна Однорогова
Звукооператор: Николай Мосин
Инженер звукозаписи: Татьяна Карасева.
Текс т читали: Татьяна Шагалова, Дмитрий Полонский
“Ретроспективно этот фильм - самый настоящий социологический феномен, первый в серии о подростках и к тому же наиболее успешный”, как отмечает французский видеосправочник “Акай”. Забавная лента с чуть ностальгической нотой в отношении тех времён, когда был в моде ансамбль Platters, пользовалась большой популярностью во Франции, заняв третье место в сезоне (после знаменитой американской картины “Челюсти” Стивена Спилберга и местной эксцентрической комедии “Крылышко или ножка” с любимцами публики Луи де Фюнесом и Колюшем). Между прочим, и до сих пор данный фильм 36-летнего дебютанта Мишеля Ланга (практически он рассказал о собственном отрочестве) входит в число ста самых кассовых в истории французского проката, занимая строчку сразу вслед за “Вальсирующими”. В этом соседстве есть определённый смысл. Трагикомический шедевр Бертрана Блие, появившийся двумя годами ранее, является по верхнему слою как раз легкомысленным фарсом о любовных и воровских похождениях двух молодых авантюристов. А танцующие озорники и ловеласы из ленты “К нам, маленькие англичанки!” - почти ровесники героев Жерара Депардьё и Патрика Дэваера, лишь только начинающие на исходе 50-х годов свои безумные эскапады, шокируя благовоспитанных английских девиц. Французские критики также сопоставляли первое кинопроизведение Мишеля Ланга с “Американскими граффити” Джорджа Лукаса, хотя Лангу, в отличие от американского коллеги, так и не удалось в дальнейшем хотя бы приблизиться к достигнутому им с ходу коммерческому результату, в том числе и в самоподражательной картине “К нам, мальчики!”, снятой через девять лет. А исполнитель роли Алена, 17-летний Реми Лоран, появившись потом ещё в паре фильмов Мишеля Ланга, умер от СПИДа в 1989 году.
General
Complete name : D:\Раздачи\A.Nous.Les.Petites.Anglaises.1976.DVDRip.XviD.rus.fra.avi
Format : AVI
Format/Info : Audio Video Interleave
File size : 1.47 GiB
Duration : 1h 44mn
Overall bit rate : 2 004 Kbps
Writing application : VirtualDubMod 1.5.10.2 (build 2540/release)
Writing library : VirtualDubMod build 2540/release
Video
ID : 0
Format : MPEG-4 Visual
Format profile : Advanced Simple@L5
Format settings, BVOP : 1
Format settings, QPel : No
Format settings, GMC : No warppoints
Format settings, Matrix : Default (MPEG)
Codec ID : XVID
Codec ID/Hint : XviD
Duration : 1h 44mn
Bit rate : 1 478 Kbps
Width : 640 pixels
Height : 384 pixels
Display aspect ratio : 1.667
Frame rate : 25.000 fps
Color space : YUV
Chroma subsampling : 4:2:0
Bit depth : 8 bits
Scan type : Progressive
Compression mode : Lossy
Bits/(Pixel*Frame) : 0.241
Stream size : 1.08 GiB (74%)
Writing library : XviD 1.1.2 (UTC 2006-11-01)
Audio #1
ID : 1
Format : MPEG Audio
Format version : Version 1
Format profile : Layer 3
Mode : Joint stereo
Mode extension : MS Stereo
Codec ID : 55
Codec ID/Hint : MP3
Duration : 1h 44mn
Bit rate mode : Constant
Bit rate : 128 Kbps
Channel(s) : 2 channels
Sampling rate : 48.0 KHz
Compression mode : Lossy
Stream size : 95.9 MiB (6%)
Alignment : Aligned on interleaves
Interleave, duration : 40 ms (1.00 video frame)
Interleave, preload duration : 504 ms
Audio #2
ID : 2
Format : AC-3
Format/Info : Audio Coding 3
Mode extension : CM (complete main)
Codec ID : 2000
Duration : 1h 44mn
Bit rate mode : Constant
Bit rate : 384 Kbps
Channel(s) : 2 channels
Channel positions : Front: L R
Sampling rate : 48.0 KHz
Bit depth : 16 bits
Compression mode : Lossy
Stream size : 288 MiB (19%)
Alignment : Split accross interleaves
Interleave, duration : 40 ms (1.00 video frame)
Interleave, preload duration : 500 ms



Скачать К.нам.англичаночки!.К.нам.маленькие.англичанки!.A.nous.les.petites.Anglaises!.(Мишель.Ланг).[1976.комедия.мелодрама.DVDRip].[DVO].torrent без регистрации
Золото ЗОЛОТАЯ РАЗДАЧА! СКАЧАННОЕ НЕ ЗАСЧИТЫВАЕТСЯ! Золото
Дата: Зарегистрирован   [ Тип: внутренний ] Как тут cкачать?
MAGNET ссылка
MAGNET ссылка


Скачать .torrent

15 KB

Статус: проверено DHT
Скачан: торрент - 154 раз, раздача полностью - 105 раз
Размер: 1,47 GB
Оценка:  - (Голосов: 0)
Поблагодарили: 1
Поделиться ссылкой на эту раздачу с друзьями:
В контактеFacebookОдноклассникиTwitterLivejournalМой МирLiveinternet
 

 
Показать сообщения:    


Вы не можете начинать темы
Вы не можете отвечать на сообщения
Вы не можете редактировать свои сообщения
Вы не можете удалять свои сообщения
Вы не можете голосовать в опросах
Вы не можете прикреплять файлы к сообщениям
Вы можете скачивать файлы