Loading...
Error

Скачать Остров на вершине мира / The Island at the Top of the World (Роберт Стивенсон) [1974, Приключения, Семейный, Фантастика, Фэнтези, DVDRip] [VO] (Александр Райдер) торрент без регистрации

 
Статистика раздачи
Размер:  751 MB   |    Скачан:  165 раз
Сидов:  1  [  0 KB/s  ]  
 
Автор Сообщение

leon030982

[] 

Остров на вершине мира / The Island at the Top of the World
Страна: США
Жанр: Приключения, Семейный, Фантастика, Фэнтези
Год выпуска: 1974
Продолжительность: 01:33:47
Перевод: одноголосый закадровый (Александр Райдер)
Cубтитры: нет
Режиссер: Роберт Стивенсон
В ролях: Доналд Синден, Мако, Жак Марен, Дэвид Хартмэн, Дэвид Гуиллим
Описание:
Название в какой-то мере описывает тему картины, рассказывая историю четырех полярников-исследователей, обнаруживших затерянный остров, населенный викингами. Основанный на романе Иана Кэмерона "Затерянные" (The Lost Ones), сценарий посылает богатого англичанина в 1907 году лететь в арктические белые просторы искать своего сына.
Картина время от времени принимает на себя аспект старомодного приключенческого фильма, когда первопроходцы находят таинственную долину, отапливаемую вулканическим теплом посреди Арктической мерзлоты и поселение Северных людей, которые вполне могли быть потомками Эрика Рыжего в его второй экспедиции в Гренландию в 10 столетиии.


Доп. информация:
Перевод фильма на русский язык и подготовка субтитров - skyoleg
Озвучивание и сведение звука - Александр Райдер


Качество видео: DVDRip
Формат видео: AVI
Видео: 640x384, 23.976 fps, DivX 918 kbps
Аудио: 48 kHz, MPEG Layer 3, 2 ch, 192.00 kbps
Видео
Идентификатор : 0
Формат : MPEG-4 Visual
Параметр BVOP формата : Да
Параметр QPel формата : Нет
Параметр GMC формата : Без точки перехода
Параметр матрицы формата : Default (H.263)
Идентификатор кодека : DX50
Идентификатор кодека/Подсказка : DivX 5
Продолжительность : 1 ч. 33 м.
Битрейт : 918 Кбит/сек
Ширина : 640 пикселей
Высота : 384 пикселя
Соотношение сторон : 1,667
Частота кадров : 23,976 кадра/сек
Цветовое пространство : YUV
Субдискретизация насыщенности : 4:2:0
Битовая глубина : 8 бит
Тип развёртки : Прогрессивная
Метод сжатия : С потерями
Бит/(Пиксели*Кадры) : 0.156
Размер потока : 616 Мбайт (82%)
Библиотека кодирования : DivX 5.0.2 (UTC 2002-05-16)
Аудио
Идентификатор : 1
Формат : MPEG Audio
Версия формата : Version 1
Профиль формата : Layer 3
Идентификатор кодека : 55
Идентификатор кодека/Подсказка : MP3
Продолжительность : 1 ч. 33 м.
Вид битрейта : Постоянный
Битрейт : 192 Кбит/сек
Каналы : 2 канала
Частота : 48,0 КГц
Метод сжатия : С потерями
Размер потока : 129 Мбайт (17%)
Выравнивание : Соединение по промежуткам
Продолжительность промежутка : 42 мс. (1,00 видеокадр)
Время предзагрузки промежутка : 504 мс.
Язык : English



Скачать Остров.на.вершине.мира.The.Island.at.the.Top.of.the.World.(Роберт.Стивенсон).[1974.Приключения.Семейный.Фантастика.Фэнтези.DVDRip].[VO].(Александр.Райдер).torrent без регистрации
Золото ЗОЛОТАЯ РАЗДАЧА! СКАЧАННОЕ НЕ ЗАСЧИТЫВАЕТСЯ! Золото
Дата: Зарегистрирован   [ Тип: внутренний ] Как тут cкачать?
MAGNET ссылка
MAGNET ссылка


Скачать .torrent

15 KB

Статус: проверено DHT
Скачан: торрент - 165 раз, раздача полностью - 40 раз
Размер: 751 MB
Оценка:  - (Голосов: 0)
Поблагодарили: 2
Поделиться ссылкой на эту раздачу с друзьями:
В контактеFacebookОдноклассникиTwitterLivejournalМой МирLiveinternet
 

 
Показать сообщения:    


Вы не можете начинать темы
Вы не можете отвечать на сообщения
Вы не можете редактировать свои сообщения
Вы не можете удалять свои сообщения
Вы не можете голосовать в опросах
Вы не можете прикреплять файлы к сообщениям
Вы можете скачивать файлы