Loading...
Error

Скачать Вторжение в США / Invasion USA (Альфред Э. Грин) [1952, фантастика, драма, DVDRip] [AVO] (Антон Алексеев) торрент без регистрации

 
Статистика раздачи
Размер:  741 MB   |    Скачан:  122 раза

Полного источника не было: 24 минуты

 
Автор Сообщение

leon030982

[] 

Вторжение в США / Invasion USA
Страна: США
Жанр: Фантастика, Драма
Год выпуска: 1952
Продолжительность: 01:13:28
Перевод: Авторский (одноголосый закадровый) Антон Алексеев
Cубтитры: нет
Оригинальная аудиодорожка: английский
Режиссер: Альфред Э. Грин
В ролях: Жералд Мор, Пегги Касл, Дэн О'Хёрлихи, Роберт Байс, Том Кеннеди, Вэйд Кросби
Описание:
№1
Фильм снят в разгар холодной войны, во времена Маккартизма. Американские обыватели сидят в кабачке и слушают новости, обсуждая возможность Третьей Мировой Войны. Неожиданно в известиях передают сообщения о начале бомбардировок крупных городов Америки. Ядерные удары наносятся по Вашингтону, Нью-йорку, Лос Анжелесу. Доблестная Красная армия вступает на землю США... (Vonavi)
№2
Репортер Винс Поттер в местном баре берет интервью у его посетителей, расспрашивая о выборах, налогах, правительстве страны. Постепенно разговор переходит на тему возможной войны с коммунистами. В это время по телевизору сообщают, что на Западное побережье США напал неприятель. Неназванный враг планирует дальнейшие бомбардировки Америки. Вскоре крупнейшие города страны оказываются разрушенными. Так готова ли Америка отразить нападение извне? (kinopoisk.ru)

Сэмпл: http://multi-up.com/665233
Релиз
Рип: Ivanov (Vonavi)
Качество видео: DVDRip
Формат видео: AVI
Видео: 576x432 (1.33:1), 23.976 fps, XviD MPEG-4 ~1139 kbps avg, 0.19 bit/pixel
Аудио: 48 kHz, MPEG Layer 3, 2 ch, 128.00 kbps (рус.)
Аудио 2: 48 kHz, MPEG Layer 3, 2 ch, 128.00 kbps (англ.)
Полное имя : D:\Invasion.USA.1952.(XviD.DVDRip.Rus.Eng).avi
Формат : AVI
Формат/Информация : Audio Video Interleave
Размер файла : 741 Мбайт
Продолжительность : 1 ч. 13 м.
Общий поток : 1410 Кбит/сек
Программа кодирования : VirtualDubMod 1.5.10.2 (build 2542/release)
Библиотека кодирования : VirtualDubMod build 2542/release
Видео
Идентификатор : 0
Формат : MPEG-4 Visual
Профиль формата : Advanced Simple@L5
Параметр BVOP формата : 2
Параметр QPel формата : Нет
Параметр GMC формата : Без точки перехода
Параметр матрицы формата : Default (H.263)
Режим смешивания : Сжатый битовый поток
Идентификатор кодека : XVID
Идентификатор кодека/Подсказка : XviD
Продолжительность : 1 ч. 13 м.
Битрейт : 1140 Кбит/сек
Ширина : 576 пикс.
Высота : 432 пикс.
Соотношение сторон : 4:3
Частота кадров : 23,976 кадр/сек
Цветовое пространство : YUV
Подвыборка цветности : 4:2:0
Битовая глубина : 8 бит
Тип развёртки : Прогрессивная
Метод сжатия : С потерями
Бит/(Пиксели*Кадры) : 0.191
Размер потока : 599 Мбайт (81%)
Библиотека кодирования : XviD 64
Аудио #1
Идентификатор : 1
Формат : MPEG Audio
Версия формата : Version 1
Профиль формата : Layer 3
Режим : Joint stereo
Расширение режима : MS Stereo
Идентификатор кодека : 55
Идентификатор кодека/Подсказка : MP3
Продолжительность : 1 ч. 13 м.
Вид битрейта : Постоянный
Битрейт : 128 Кбит/сек
Канал(ы) : 2 канала(ов)
Частота : 48,0 КГц
Метод сжатия : С потерями
Размер потока : 67,2 Мбайт (9%)
Выравнивание : Соединение по промежуткам
Продолжительность промежутка : 42 мс. (1,00 видеокадр)
Время предзагрузки промежутка : 504 ms
Аудио #2
Идентификатор : 2
Формат : MPEG Audio
Версия формата : Version 1
Профиль формата : Layer 3
Режим : Joint stereo
Расширение режима : MS Stereo
Идентификатор кодека : 55
Идентификатор кодека/Подсказка : MP3
Продолжительность : 1 ч. 13 м.
Вид битрейта : Постоянный
Битрейт : 128 Кбит/сек
Канал(ы) : 2 канала(ов)
Частота : 48,0 КГц
Метод сжатия : С потерями
Размер потока : 67,2 Мбайт (9%)
Выравнивание : Соединение по промежуткам
Продолжительность промежутка : 42 мс. (1,00 видеокадр)
Время предзагрузки промежутка : 504 ms



Скачать Вторжение.в.США.Invasion.USA.(Альфред.Э.Грин).[1952.фантастика.драма.DVDRip].[AVO].(Антон.Алексеев).torrent без регистрации
Золото ЗОЛОТАЯ РАЗДАЧА! СКАЧАННОЕ НЕ ЗАСЧИТЫВАЕТСЯ! Золото
Дата: Зарегистрирован   [ Тип: внутренний ] Как тут cкачать?
MAGNET ссылка
MAGNET ссылка


Скачать .torrent

15 KB

Статус: проверено DHT
Скачан: торрент - 122 раз, раздача полностью - 16 раз
Размер: 741 MB
Оценка:  - (Голосов: 0)
Поблагодарили: 1
Поделиться ссылкой на эту раздачу с друзьями:
В контактеFacebookОдноклассникиTwitterLivejournalМой МирLiveinternet
 

 
Показать сообщения:    


Вы не можете начинать темы
Вы не можете отвечать на сообщения
Вы не можете редактировать свои сообщения
Вы не можете удалять свои сообщения
Вы не можете голосовать в опросах
Вы не можете прикреплять файлы к сообщениям
Вы можете скачивать файлы