Loading...
Error

Скачать Запад становится тесным, друг… приехал Аллилуйя / Возвращение Аллилуйи / Il West ti va stretto, amico… e arrivato Alleluja (Джулиано Карнимео) [1972, вестерн, комедия, VHSRip] [VO] торрент без регистрации

 
Статистика раздачи
Размер:  1,37 GB   |    Скачан:  137 раз
Сидов:  1  [  0 KB/s  ]  
 
Автор Сообщение

leon030982

[] 

Запад становится тесным, друг… приехал Аллилуйя / Возвращение Аллилуйи / Il West ti va stretto, amico… e arrivato Alleluja
Страна: Франция, Италия, Германия (ФРГ)
Жанр: Вестерн, комедия
Год выпуска: 1972
Продолжительность: 01:31:49
Перевод: Одноголосый закадровый
Cубтитры: нет
Режиссер: Джулиано Карнимео / Giuliano Carnimeo
В ролях: Джордж Хилтон, Линкольн Тейт, Раймон Бюссьер, Риккардо Гарроне, Альдо Барберито, Роберто Камардьель, Нелло Паццафини, Умберто Д’Орси, Ренато Бальдини
Описание: В середине 19 века бескрайняя Мексика была охвачена гражданской войной. В страну хлынул поток авантюристов и искателей приключений. При поддержке европейских держав престол занял потомок испанского короля Карла V австрийский эрцгерцог Максимилиан. Рамирез, глава мексиканских повстанцев, в борьбе с властями решает заручиться поддержкой местных индейцев-ацтеков. Для этого он обещает вернуть им украденную у них статуэтку древнего идола. Ее соглашается достать невероятно ловкий авантюрист.

Семпл

Качество видео: VHSRip по качеству звука - с кассеты
Формат видео: AVI
Видео: 704x384 (1.83:1), 25 fps, XviD build 50, 1996 kbps avg, 0.29 bit/pixe
Аудио: 48 kHz, MPEG Layer 3, 2 ch, 128 kbps avg
General
Complete name : C:\Documents and Settings\Алекс\Мои документы\Мои раздачи\Возвращение Аллилуи\Vozvratshenie_Halleluja.avi
Format : AVI
Format/Info : Audio Video Interleave
File size : 1.37 GiB
Duration : 1h 31mn
Overall bit rate : 2 131 Kbps
Writing application : VirtualDubMod 1.5.4.1 (build 2178/release)
Writing library : VirtualDubMod build 2178/release
Video
ID : 0
Format : MPEG-4 Visual
Format profile : Advanced Simple@L5
Format settings, BVOP : Yes
Format settings, QPel : No
Format settings, GMC : No warppoints
Format settings, Matrix : Custom
Codec ID : XVID
Codec ID/Hint : XviD
Duration : 1h 31mn
Bit rate : 1 996 Kbps
Width : 704 pixels
Height : 384 pixels
Display aspect ratio : 16:9
Frame rate : 25.000 fps
Resolution : 8 bits
Colorimetry : 4:2:0
Scan type : Progressive
Bits/(Pixel*Frame) : 0.295
Stream size : 1.28 GiB (94%)
Writing library : XviD 1.2.1 (UTC 2008-12-04)
Audio
ID : 1
Format : MPEG Audio
Format version : Version 1
Format profile : Layer 3
Mode : Joint stereo
Format_Settings_ModeExtension : MS Stereo
Codec ID : 55
Codec ID/Hint : MP3
Duration : 1h 31mn
Bit rate mode : Constant
Bit rate : 128 Kbps
Channel(s) : 2 channels
Sampling rate : 48.0 KHz
Stream size : 84.1 MiB (6%)
Alignment : Aligned on interleaves
Interleave, duration : 80 ms (2.00 video frames)
Interleave, preload duration : 504 ms
Writing library : LAME3.98r
Encoding settings : -m j -V 4 -q 2 -lowpass 17 -b 128



Скачать Запад.становится.тесным.друг….приехал.Аллилуйя.Возвращение.Аллилуйи.Il.West.ti.va.stretto.amico….e.arrivato.Alleluja.(Джулиано.Карнимео).[1972.вестерн.комедия.VHSRip].[VO].torrent без регистрации
Золото ЗОЛОТАЯ РАЗДАЧА! СКАЧАННОЕ НЕ ЗАСЧИТЫВАЕТСЯ! Золото
Дата: Зарегистрирован   [ Тип: внутренний ] Как тут cкачать?
MAGNET ссылка
MAGNET ссылка


Скачать .torrent

14 KB

Статус: проверено DHT
Скачан: торрент - 137 раз, раздача полностью - 15 раз
Размер: 1,37 GB
Оценка:  - (Голосов: 0)
Поблагодарили: 2
Поделиться ссылкой на эту раздачу с друзьями:
В контактеFacebookОдноклассникиTwitterLivejournalМой МирLiveinternet
 

 
Показать сообщения:    


Вы не можете начинать темы
Вы не можете отвечать на сообщения
Вы не можете редактировать свои сообщения
Вы не можете удалять свои сообщения
Вы не можете голосовать в опросах
Вы не можете прикреплять файлы к сообщениям
Вы можете скачивать файлы