Loading...
Error

Скачать История одного побега / Cronica De Una Fuga (Адриан Каэтано) [2006, драма, триллер, DVDRip] [VO] (Александр Райдер) торрент без регистрации

 
Статистика раздачи
Размер:  1,6 GB   |    Скачан:  122 раза
Сидов:  1  [  0 KB/s  ]  
 
Автор Сообщение

leon030982

[] 

История одного побега / Cronica De Una Fuga
Страна: Аргентина
Жанр: драма / триллер
Год выпуска: 2006
Продолжительность: 1:43:38
Перевод: одноголосый закадровый (Александр Райдер)по субтитрам Bums
Cубтитры: нет
Режиссер: Адриан Каэтано
В ролях:
Родриго Де ла Серна, Назарено Касеро, Пабло Эчарри, Лаутаро Дельгадо, Матиас Марморато

Описание:
Фильм основан на реальных событиях.
Буэнос-Айрес, 1977 год. Отряд специального назначения, работающий на фашистскую военную организацию, похищает Клаудио Тамбурини, вратаря футбольной команды низшей лиги, и доставляет его в тайный лагерь для заключенных.
Там Клаудио проходит через ад допросов, избиений, унижений и предательств. Кошмарный мир безумного произвола и беспрестанного насилия, как физического, так и духовного. Вместе с другими заключенными он борется за жизнь, ожидая, когда его судьба будет, наконец, решена.
После четырех месяцев в лагере, поняв, что смертельного приговора им не избежать, Клаудио и трое других пленников решаются на отчаянный шаг. Во время сильнейшей грозы, им удается открыть окно, и они, абсолютно обнаженные, прыгают в никуда…
Их борьба за будущее началась.


Перевод фильма на русский язык и подготовка субтитров - Bums
Озвучивание и сведение звука - Александр Райдер

Озвучивание предисловия и послесловия к фильму - Лев Преображенский

Качество видео: DVDRip
Формат видео: AVI
Видео: 720x384, 23.976 fps, XviD, 1556 kbps, 0.235 bit/pixel
Аудио 1: Russian 48.000 kHz, AC3 Dolby Digital, 3/2 (L,C,R,l,r) + LFE ch, 448.00 kbps avg
Аудио 2: Russian 48.000 kHz, AC3 Dolby Digital, 2/0 (L,R) ch, 192.00 kbps avg
Формат : AVI
Формат/Информация : Audio Video Interleave
Размер файла : 1,60 Гбайт
Продолжительность : 1 ч. 43 м.
Общий поток : 2210 Кбит/сек
Программа кодирования : VirtualDubMod 1.5.10.2 (build 2540/release)
Библиотека кодирования : VirtualDubMod build 2540/release
Видео
Идентификатор : 0
Формат : MPEG-4 Visual
Профиль формата : Advanced Simple@L5
Параметр BVOP формата : 2
Параметр QPel формата : Нет
Параметр GMC формата : Без точки перехода
Параметр матрицы формата : Выборочная
Идентификатор кодека : XVID
Идентификатор кодека/Подсказка : XviD
Продолжительность : 1 ч. 43 м.
Битрейт : 1556 Кбит/сек
Ширина : 720 пикселей
Высота : 384 пикселя
Соотношение сторон : 1,875
Частота кадров : 23,976 кадра/сек
Цветовое пространство : YUV
Субдискретизация насыщенности : 4:2:0
Битовая глубина : 8 бит
Тип развёртки : Прогрессивная
Метод сжатия : С потерями
Бит/(Пиксели*Кадры) : 0.235
Размер потока : 1,13 Гбайт (70%)
Библиотека кодирования : XviD 1.1.2 (UTC 2006-11-01)
Аудио #1
Идентификатор : 1
Формат : AC-3
Формат/Информация : Audio Coding 3
Расширение режима : CM (complete main)
Идентификатор кодека : 2000
Продолжительность : 1 ч. 43 м.
Вид битрейта : Постоянный
Битрейт : 448 Кбит/сек
Каналы : 6 каналов
Расположение каналов : Front: L C R, Side: L R, LFE
Частота : 48,0 КГц
Битовая глубина : 16 бит
Метод сжатия : С потерями
Размер потока : 332 Мбайт (20%)
Выравнивание : Разделение по промежуткам
Продолжительность промежутка : 42 мс. (1,00 видеокадр)
Время предзагрузки промежутка : 500 мс.
Аудио #2
Идентификатор : 2
Формат : AC-3
Формат/Информация : Audio Coding 3
Расширение режима : CM (complete main)
Идентификатор кодека : 2000
Продолжительность : 1 ч. 43 м.
Вид битрейта : Постоянный
Битрейт : 192 Кбит/сек
Каналы : 2 канала
Расположение каналов : Front: L R
Частота : 48,0 КГц
Битовая глубина : 16 бит
Метод сжатия : С потерями
Размер потока : 142 Мбайт (9%)
Выравнивание : Разделение по промежуткам
Продолжительность промежутка : 42 мс. (1,00 видеокадр)
Время предзагрузки промежутка : 500 мс.
Аудио #2
Идентификатор : 2
Формат : AC-3
Формат/Информация : Audio Coding 3
Расширение режима : CM (complete main)
Идентификатор кодека : 2000
Продолжительность : 1 ч. 43 м.
Вид битрейта : Постоянный
Битрейт : 192 Кбит/сек
Каналы : 2 канала
Расположение каналов : Front: L R
Частота : 48,0 КГц
Битовая глубина : 16 бит
Метод сжатия : С потерями
Размер потока : 142 Мбайт (9%)
Выравнивание : Разделение по промежуткам
Продолжительность промежутка : 42 мс. (1,00 видеокадр)
Время предзагрузки промежутка : 500 мс.



Скачать История.одного.побега.Cronica.De.Una.Fuga.(Адриан.Каэтано).[2006.драма.триллер.DVDRip].[VO].(Александр.Райдер).torrent без регистрации
Золото ЗОЛОТАЯ РАЗДАЧА! СКАЧАННОЕ НЕ ЗАСЧИТЫВАЕТСЯ! Золото
Дата: Зарегистрирован   [ Тип: внутренний ] Как тут cкачать?
MAGNET ссылка
MAGNET ссылка


Скачать .torrent

17 KB

Статус: проверено DHT
Скачан: торрент - 122 раз, раздача полностью - 23 раз
Размер: 1,6 GB
Оценка:  - (Голосов: 0)
Поблагодарили: 1
Поделиться ссылкой на эту раздачу с друзьями:
В контактеFacebookОдноклассникиTwitterLivejournalМой МирLiveinternet
 

 
Показать сообщения:    


Вы не можете начинать темы
Вы не можете отвечать на сообщения
Вы не можете редактировать свои сообщения
Вы не можете удалять свои сообщения
Вы не можете голосовать в опросах
Вы не можете прикреплять файлы к сообщениям
Вы можете скачивать файлы