Loading...
Error

Скачать Покровитель / The Protector (Джеймс Гликенхаус) [1985, боевик, триллер, драма, криминал, DVDRip] [AVO] (Живов, Ошурков) + [VO] торрент без регистрации

 
Статистика раздачи
Размер:  1,79 GB   |    Скачан:  136 раз

Полного источника не было: 24 минуты

 
Автор Сообщение

leon030982

[] 

Покровитель / The Protector
Страна: США, Гонконг
Жанр: боевик, триллер, драма, криминал
Год выпуска: 1985
Продолжительность: 01:31:41
Перевод: Авторский (одноголосый закадровый) Ю. Живов
Перевод 2: Авторский (одноголосый закадровый) Ошурков
Перевод 3: Одноголосый закадровый (неизвестный)
Cубтитры: нет
Оригинальная аудиодорожка: английский, французкий (обе отдельно)
Режиссер: Джеймс Гликенхаус

В ролях: Джеки Чан, Дэнни Айелло, Сэнди Александр, Виктор Арнольд, Ким Басс, Ирен Бритто, Джесси Камерон-Гликенхаус, Аль Серулло, Рой Чяо, Ричард Кларк..

Описание: В Нью-Йорке на элитном показе мод похищают дочь влиятельного миллионера. На этой же вечеринке работал охранником полицейский Билли Вонг. Отстраненный от своей работы за излишнюю горячность, лишь он один способен спасти девушку. Отправившись в Гонконг, Билли сразу же попадает в самый центр наркобизнеса…

Сэмпл: http://multi-up.com/661998
Качество видео: DVDRip
Формат видео: AVI
Видео: 720x400 (1.80:1), 25 fps, XviD build 64 ~1813 kbps avg, 0.25 bit/pixel
Аудио: 48 kHz, AC3 Dolby Digital, 2/0 (L,R) ch, ~192 kbps (Живов)
Аудио 2: 48 kHz, AC3 Dolby Digital, 2/0 (L,R) ch, ~192 kbps (Ошурков)
Аудио 3: 48 kHz, AC3 Dolby Digital, 2/0 (L,R) ch, ~192 kbps (неизвестный)
Аудио 4: 48 kHz, AC3 Dolby Digital, 2/0 (L,R) Surround Encoded ch, ~192 kbps (аглицкий, отдельно)
Аудио 4: 48 kHz, AC3 Dolby Digital, 2/0 (L,R) Surround Encoded ch, ~192 kbps (французкий, отдельно)
General
Complete name : D:\Torrent\The.Protector.1985.DVDRip\The.Protector.DVDRip.2xAVO.+neizv.avi
Format : AVI
Format/Info : Audio Video Interleave
File size : 1.54 GiB
Duration : 1h 31mn
Overall bit rate : 2 411 Kbps
Writing application : VirtualDubModRus 1.5.10.2 (build 2542/release)
Writing library : VirtualDubMod build 2542/release
Video
ID : 0
Format : MPEG-4 Visual
Format profile : Advanced Simple@L5
Format settings, BVOP : Yes
Format settings, QPel : No
Format settings, GMC : No warppoints
Format settings, Matrix : Default (MPEG)
Codec ID : XVID
Codec ID/Hint : XviD
Duration : 1h 31mn
Bit rate : 1 815 Kbps
Width : 720 pixels
Height : 400 pixels
Display aspect ratio : 16:9
Frame rate : 25.000 fps
Color space : YUV
Chroma subsampling : 4:2:0
Bit depth : 8 bits
Scan type : Progressive
Bits/(Pixel*Frame) : 0.252
Stream size : 1.16 GiB (75%)
Writing library : XviD 64
Audio #1
ID : 1
Format : AC-3
Format/Info : Audio Coding 3
Mode extension : CM (complete main)
Codec ID : 2000
Duration : 1h 31mn
Bit rate mode : Constant
Bit rate : 192 Kbps
Channel(s) : 2 channels
Channel positions : Front: L R
Sampling rate : 48.0 KHz
Bit depth : 16 bits
Stream size : 126 MiB (8%)
Alignment : Split accross interleaves
Interleave, duration : 40 ms (1.00 video frame)
Interleave, preload duration : 500 ms
Audio #2
ID : 2
Format : AC-3
Format/Info : Audio Coding 3
Mode extension : CM (complete main)
Codec ID : 2000
Duration : 1h 31mn
Bit rate mode : Constant
Bit rate : 192 Kbps
Channel(s) : 2 channels
Channel positions : Front: L R
Sampling rate : 48.0 KHz
Bit depth : 16 bits
Stream size : 126 MiB (8%)
Alignment : Split accross interleaves
Interleave, duration : 40 ms (1.00 video frame)
Interleave, preload duration : 500 ms
Audio #3
ID : 3
Format : AC-3
Format/Info : Audio Coding 3
Mode extension : CM (complete main)
Codec ID : 2000
Duration : 1h 31mn
Bit rate mode : Constant
Bit rate : 192 Kbps
Channel(s) : 2 channels
Channel positions : Front: L R
Sampling rate : 48.0 KHz
Bit depth : 16 bits
Stream size : 126 MiB (8%)
Alignment : Split accross interleaves
Interleave, duration : 40 ms (1.00 video frame)
Interleave, preload duration : 500 ms



Скачать Покровитель.The.Protector.(Джеймс.Гликенхаус).[1985.боевик.триллер.драма.криминал.DVDRip].[AVO].(Живов.Ошурков).+.[VO].torrent без регистрации
Золото ЗОЛОТАЯ РАЗДАЧА! СКАЧАННОЕ НЕ ЗАСЧИТЫВАЕТСЯ! Золото
Дата: Зарегистрирован   [ Тип: внутренний ] Как тут cкачать?
MAGNET ссылка
MAGNET ссылка


Скачать .torrent

19 KB

Статус: проверено DHT
Скачан: торрент - 136 раз, раздача полностью - 2 раз
Размер: 1,79 GB
Оценка:  5 (Голосов: 1)
Поблагодарили: 1
Поделиться ссылкой на эту раздачу с друзьями:
В контактеFacebookОдноклассникиTwitterLivejournalМой МирLiveinternet
 

 
Показать сообщения:    


Вы не можете начинать темы
Вы не можете отвечать на сообщения
Вы не можете редактировать свои сообщения
Вы не можете удалять свои сообщения
Вы не можете голосовать в опросах
Вы не можете прикреплять файлы к сообщениям
Вы можете скачивать файлы