Loading...
Error

Скачать Последний из Могикан / The Last of the Mohicans (Майкл Манн /Michael Mann) [1992, мелодрама, приключения, военный, HDRip] [DUB] [Режиссерская версия / Director's Definitive от nigoz] торрент без регистрации

 
Статистика раздачи
Размер:  1,46 GB   |    Скачан:  162 раза

Полного источника не было: 1 день 19 часов

 
Автор Сообщение

Jenek

[] 

Окончатьльная режиссерская версия / Director's Definitive Cut

Год выпуска: 1992
Страна: США
Слоган: «The first American hero.»

Жанр: мелодрама, приключения, военный
Рейтинг MPAA:
Продолжительность: 01:54:33
Перевод: Профессиональный (Полное дублирование) Со вставками MVO на расширенные эпизоды
Профессиональный (многоголосый закадровый)
Субтитры: Русские[3 вида:Полные,Форсированные(для MVO),Форсированные (для Дубляжа)] (внешние)

Режиссёр: Майкл Манн /Michael Mann/

В ролях: Дэниэл Дэй-Льюис /Daniel Day-Lewis/, Мэдлин Стоу /Madeleine Stowe/, Рассел Минс /Russell Means/, Эрик Швейг /Eric Schweig/, Джоди Мей /Jodhi May/, Стивен Вэддингтон /Steven Waddington/, Уэс Студи /Wes Studi/, Морис Роевз /Maurice Roeves/, Патрис Шеро /Patrice Chereau/, Эдвард Блэтчфорд /Edward Blatchford/

Описание: 1757 год. Англо-французская война за американские колонии в самом разгаре. Дочери полковника Манро пытаются пробраться в осажденный французами английский форт. Им на помощь приходит молодой белый охотник Соколиный Глаз. Между Соколиным Глазом, выросшим среди индейцев племени могикан, и старшей из дочерей, утонченной Корой, вспыхивает взаимное чувство.

Но Кора и ее сестра попадают в плен к союзникам французов гуронам, и от мучительной смерти их могут спасти только Соколиный Глаз и его верные друзья индейцы



Автор рипа: nigoz

Файл:
Формат: AVI
Качество: HDRip
Видео: XviD; 720x304 (2.35:1); 1 365 kbps; 23.976 fps; 0.260 bpp
Аудио: Russian; AC3; 224.00 kbps; L R; 2 ch; 48 kHz; 16 bits; Dub
Russian; AC3; 224.00 kbps; L R; 2 ch; 48 kHz; 16 bits; MVO

бюджет $40 000 000
сборы в США $75 505 856

Оскар, 1993 год
Победитель (1):

Лучший звук

Золотой глобус, 1993 год
Номинации (1):

Лучший саундтрек
Британская академия, 1993 год
Победитель (2):

Лучшая работа оператора
Лучший грим
Номинации (5):

Лучшая мужская роль (Дэниэл Дэй-Льюис)
Лучшие костюмы
Лучший звук
Лучший саундтрек
Лучшая работа художника-постановщика

Майкл Манн не читал книгу Джеймса Ф. Купера «Последний из могикан» ни до, ни во время съемок.
Во время съемок в «Последнем из могикан» (1992) Дэниел Дэй-Льюис смастерил каноэ, учился выслеживать и разделывать животных, а также преуспел во владении 12-фунтовым кремнёвым ружьем, которое повсюду носил с собой. Даже на рождественский ужин.

D:torrentgotovoeThe Last of the Mohicans (nigoz)The Last of the Mohicans (1992) [nigoz].avi
General
Complete name : D:torrentgotovoeThe Last of the Mohicans (nigoz)The Last of the Mohicans (1992) [nigoz].avi
Format : AVI
Format/Info : Audio Video Interleave
File size : 1.46 GiB
Duration : 1h 54mn
Overall bit rate : 1 827 Kbps
Director : nigoz
Original source form/Distributed by : BDRip 1080p
Writing application : VirtualDubMod 1.5.10.2 (build 2540/release)
Writing library : VirtualDubMod build 2540/release
Copyright : torrents.by
Video #0
ID : 0
Format : MPEG-4 Visual
Format profile : AdvancedSimple@L5
Format settings, BVOP : Yes
Format settings, QPel : No
Format settings, GMC : No warppoints
Format settings, Matrix : Custom
Codec ID : XVID
Codec ID/Hint : XviD
Duration : 1h 54mn
Bit rate : 1 365 Kbps
Width : 720 pixels
Height : 304 pixels
Display aspect ratio : 2.35:1
Frame rate : 23.976 fps
Resolution : 24 bits
Colorimetry : 4:2:0
Scan type : Progressive
Bits/(Pixel*Frame) : 0.260
Stream size : 1.09 GiB (75%)
Writing library : XviD 1.2.1 (UTC 2008-12-04)
Audio #1
ID : 1
Format : AC-3
Format/Info : Audio Coding 3
Codec ID : 2000
Duration : 1h 54mn
Bit rate mode : Constant
Bit rate : 224 Kbps
Channel(s) : 2 channels
Channel positions : L R
Sampling rate : 48.0 KHz
Stream size : 184 MiB (12%)
Alignment : Split accross interleaves
Interleave, duration : 42 ms (1.00 video frame)
Interleave, preload duration : 500 ms
Audio #2
ID : 2
Format : AC-3
Format/Info : Audio Coding 3
Codec ID : 2000
Duration : 1h 54mn
Bit rate mode : Constant
Bit rate : 224 Kbps
Channel(s) : 2 channels
Channel positions : L R
Sampling rate : 48.0 KHz
Stream size : 184 MiB (12%)
Alignment : Split accross interleaves
Interleave, duration : 42 ms (1.00 video frame)
Interleave, preload duration : 500 ms



Скачать Последний.из.Могикан.The.Last.of.the.Mohicans.(Майкл.Манн.Michael.Mann).[1992.мелодрама.приключения.военный.HDRip].[DUB].[Режиссерская.версия.Director's.Definitive.от.nigoz].torrent без регистрации
Золото ЗОЛОТАЯ РАЗДАЧА! СКАЧАННОЕ НЕ ЗАСЧИТЫВАЕТСЯ! Золото
Дата: Зарегистрирован   [ Тип: внутренний ] Как тут cкачать?
MAGNET ссылка
MAGNET ссылка


Скачать .torrent

15 KB

Статус: проверено
Скачан: торрент - 162 раз, раздача полностью - 50 раз
Размер: 1,46 GB
Оценка:  5 (Голосов: 1)
Поблагодарили: 3
Поделиться ссылкой на эту раздачу с друзьями:
В контактеFacebookОдноклассникиTwitterLivejournalМой МирLiveinternet
 

 
Показать сообщения:    


Вы не можете начинать темы
Вы не можете отвечать на сообщения
Вы не можете редактировать свои сообщения
Вы не можете удалять свои сообщения
Вы не можете голосовать в опросах
Вы не можете прикреплять файлы к сообщениям
Вы можете скачивать файлы