Loading...
Error

Скачать Текетеке / Teketeke (Коши Шираиши / Kôji Shiraishi) [2009, Ужасы, DVDRip] [VO] торрент без регистрации

 
Статистика раздачи
Размер:  692 MB   |    Скачан:  135 раз
Сидов:  1  [  0 KB/s  ]  
 
Автор Сообщение

Jenek

[] 

Цок-цок / Текетеке / Teketeke
Страна: Япония
Жанр: Ужасы
Год выпуска: 2009
Продолжительность: 01:10:11
Перевод: Одноголосый закадровый (Yuki)
Cубтитры: нет
Режиссер: Коши Шираиши / Kôji Shiraishi
В ролях: Юко Ошима,Мами Ямасаки,Май Нишида,Каору Мидзуки,Шинмэй Цудзи,Казуки Нанасе
Описание: Шестьдесят лет назад американский солдат изнасиловал местную девушку, и она в отчаянии бросилась под поезд. Из-за сильных зимних морозов кровь самоубийцы превратилась в лед, а ее живой труп, голодный, холодный и безжалостный, до сих пор бродит по ночным улицам и нападает на случайных прохожих.

Сэмпл: http://multi-up.com/670587
Качество видео: DVDRip
Формат видео: AVI
Видео: Xvid 672x368 23.98fps 1 177 Kbps
Аудио: Dolby AC3 48000Hz stereo 192kbps
Format : AVI
Format/Info : Audio Video Interleave
File size : 692 MiB
Duration : 1h 10mn
Overall bit rate : 1 378 Kbps
Director : rip Миллиган
Writing application : VirtualDubMod 1.5.10.3 (build 2550/release)
Writing library : VirtualDubMod build 2550/release
Comment : asiamorte.com
Video
ID : 0
Format : MPEG-4 Visual
Format profile : Advanced Simple@L5
Format settings, BVOP : Yes
Format settings, QPel : No
Format settings, GMC : No warppoints
Format settings, Matrix : Default (H.263)
Codec ID : XVID
Codec ID/Hint : XviD
Duration : 1h 10mn
Bit rate : 1 177 Kbps
Width : 672 pixels
Height : 368 pixels
Display aspect ratio : 16:9
Frame rate : 23.976 fps
Resolution : 8 bits
Colorimetry : 4:2:0
Scan type : Progressive
Bits/(Pixel*Frame) : 0.198
Stream size : 591 MiB (85%)
Writing library : XviD 1.2.1 (UTC 2008-12-04)
Audio
ID : 1
Format : AC-3
Format/Info : Audio Coding 3
Codec ID : 2000
Duration : 1h 10mn
Bit rate mode : Constant
Bit rate : 192 Kbps
Channel(s) : 2 channels
Channel positions : L R
Sampling rate : 48.0 KHz
Stream size : 96.4 MiB (14%)
Alignment : Split accross interleaves
Interleave, duration : 42 ms (1.00 video frame)
Interleave, preload duration : 500 ms



Скачать Текетеке.Teketeke.(Коши.Шираиши.Kôji.Shiraishi).[2009.Ужасы.DVDRip].[VO].torrent без регистрации
Золото ЗОЛОТАЯ РАЗДАЧА! СКАЧАННОЕ НЕ ЗАСЧИТЫВАЕТСЯ! Золото
Дата: Зарегистрирован   [ Тип: внутренний ] Как тут cкачать?
MAGNET ссылка
MAGNET ссылка


Скачать .torrent

14 KB

Статус: проверено DHT
Скачан: торрент - 135 раз, раздача полностью - 372 раз
Размер: 692 MB
Оценка:  - (Голосов: 0)
Поблагодарили: 1
Поделиться ссылкой на эту раздачу с друзьями:
В контактеFacebookОдноклассникиTwitterLivejournalМой МирLiveinternet
 

 
Показать сообщения:    


Вы не можете начинать темы
Вы не можете отвечать на сообщения
Вы не можете редактировать свои сообщения
Вы не можете удалять свои сообщения
Вы не можете голосовать в опросах
Вы не можете прикреплять файлы к сообщениям
Вы можете скачивать файлы