Loading...
Error

Скачать Текетеке 2 / Teketeke 2 (Коши Шираиши / Kôji Shiraishi) [2009, Ужасы, DVDRip] [VO] торрент без регистрации

 
Статистика раздачи
Размер:  924 MB   |    Скачан:  127 раз
Сидов:  1  [  0 KB/s  ]  
 
Автор Сообщение

Jenek

[] 

Цок-цок 2 / Текетеке 2 / Teketeke 2
Страна: Япония
Жанр: Ужасы
Год выпуска: 2009
Продолжительность: 01:12:46
Перевод: Одноголосый закадровый (Yuki)
Cубтитры: нет
Режиссер: Коши Шираиши / Kôji Shiraishi
В ролях: Саюри Ивата, Миу Накамура, Ёко Чёсокабэ, Хатсуне Мацушима, Риза Мачи, Аяно Ямамото
Описание: Шираиши Коджи, мастер gore и violent, автор «Carved» о женщине с разрезанным лицом,снял сиквел "Teketeke"события в котором продолжают сюжетную линию первой части повествующей о кровожадной городской легенде.

Сэмпл: http://multi-up.com/670549
Качество видео: DVDRip
Формат видео: AVI
Видео: Xvid 720x400 29.97fps 1 571 Kbps
Аудио: Dolby AC3 48000Hz stereo 192kbps
Format : AVI
Format/Info : Audio Video Interleave
File size : 924 MiB
Duration : 1h 12mn
Overall bit rate : 1 775 Kbps
Writing application : VirtualDubMod 1.5.10.3 (build 2550/release)
Writing library : VirtualDubMod build 2550/release
Video
ID : 0
Format : MPEG-4 Visual
Format profile : Advanced Simple@L5
Format settings, BVOP : Yes
Format settings, QPel : No
Format settings, GMC : No warppoints
Format settings, Matrix : Custom
Codec ID : XVID
Codec ID/Hint : XviD
Duration : 1h 12mn
Bit rate : 1 571 Kbps
Width : 720 pixels
Height : 400 pixels
Display aspect ratio : 16:9
Frame rate : 29.970 fps
Resolution : 8 bits
Colorimetry : 4:2:0
Scan type : Progressive
Bits/(Pixel*Frame) : 0.182
Stream size : 818 MiB (89%)
Writing library : XviD 64
Audio
ID : 1
Format : AC-3
Format/Info : Audio Coding 3
Codec ID : 2000
Duration : 1h 12mn
Bit rate mode : Constant
Bit rate : 192 Kbps
Channel(s) : 2 channels
Channel positions : L R
Sampling rate : 48.0 KHz
Stream size : 99.9 MiB (11%)
Alignment : Split accross interleaves
Interleave, duration : 33 ms (1.00 video frame)
Interleave, preload duration : 500 ms



Скачать Текетеке.2.Teketeke.2.(Коши.Шираиши.Kôji.Shiraishi).[2009.Ужасы.DVDRip].[VO].torrent без регистрации
Золото ЗОЛОТАЯ РАЗДАЧА! СКАЧАННОЕ НЕ ЗАСЧИТЫВАЕТСЯ! Золото
Дата: Зарегистрирован   [ Тип: внутренний ] Как тут cкачать?
MAGNET ссылка
MAGNET ссылка


Скачать .torrent

19 KB

Статус: проверено DHT
Скачан: торрент - 127 раз, раздача полностью - 422 раз
Размер: 924 MB
Оценка:  - (Голосов: 0)
Поблагодарили: 1
Поделиться ссылкой на эту раздачу с друзьями:
В контактеFacebookОдноклассникиTwitterLivejournalМой МирLiveinternet
 

 
Показать сообщения:    


Вы не можете начинать темы
Вы не можете отвечать на сообщения
Вы не можете редактировать свои сообщения
Вы не можете удалять свои сообщения
Вы не можете голосовать в опросах
Вы не можете прикреплять файлы к сообщениям
Вы можете скачивать файлы