Loading...
Error

Скачать Три мушкетера / The Three Musketeers (Джордж Сидни) [1948 г., приключения, DVDRip] [DVO] торрент без регистрации

 
Статистика раздачи
Размер:  745 MB   |    Скачан:  149 раз

Полного источника не было: 5 месяцев 13 дней

 
Автор Сообщение

leon030982

[] 

Три мушкетера / The Three Musketeers
Год выпуска: 1948
Страна: США
Жанр: приключения
Продолжительность: 02:00:35
Перевод: Профессиональный (двухголосый, закадровый)
Русские субтитры: нет
Режиссер: Джордж Сидни
В ролях: Лана Тернер, Джин Келли, Джун Аллисон, Ван Хефлин, Анджела Лэнсбери, Фрэнк Морган, Винсент Прайс, Кинен Уинн, Джон Саттон, Гиг Янг

Описание: Д'Артаньян молодой провинциал приезжает покорять столицу Франции - Париж. Юноша жаждет приключений и поступает на службу в королевский полк мушкетеров. Красавец и виртуозный фехтовальщик добьется своего: его ожидают приключения, тайны, новые друзья, новые враги, поединки и, конечно же, любовь. Судьба улыбнется Д'Артаньяну - он обретет верных, честных, веселых и благородных друзей, а его возлюбленная девушка будет самой прелестной на свете. Именно ему предстоит спасти саму королеву Франции и получить награду из ее рук. Действуя по велению дружбы, любви и долга, герой наживет себе и злейших врагов. Среди них и могущественный кардинал Ришелье, и красавица-миледи, которая поклялась отомстить храброму гасконцу.

Качество: DVDRip
Формат: AVI
Видео кодек: XviD
Аудио кодек: MP3
Видео: 592x432 (1.37:1), 25 fps, XviD build 50 ~725 kbps avg, 0.11 bit/pixel
Аудио: 48 kHz, MPEG Layer 3, 2 ch, ~128.00 kbps avg
General
Complete name : E:\001 МОИ РАЗДАЧИ\3 мушкетера 745\3_mushketera_745_[torrents.ru]_by_bm11.avi
Format : AVI
Format/Info : Audio Video Interleave
File size : 745 MiB
Duration : 2h 0mn
Overall bit rate : 864 Kbps
Writing application : VirtualDubMod 1.5.10.2 (build 2540/release)
Writing library : VirtualDubMod build 2540/release
Video
Format : MPEG-4 Visual
Format profile : Streaming Video@L1
Format settings, BVOP : Yes
Format settings, QPel : No
Format settings, GMC : No warppoints
Format settings, Matrix : Custom
Codec ID : XVID
Codec ID/Hint : XviD
Duration : 2h 0mn
Bit rate : 726 Kbps
Width : 592 pixels
Height : 432 pixels
Display aspect ratio : 1.370
Frame rate : 25.000 fps
Resolution : 24 bits
Colorimetry : 4:2:0
Scan type : Progressive
Bits/(Pixel*Frame) : 0.114
Stream size : 626 MiB (84%)
Writing library : XviD 50
Audio
Format : MPEG Audio
Format version : Version 1
Format profile : Layer 3
Codec ID : 55
Codec ID/Hint : MP3
Duration : 2h 0mn
Bit rate mode : Constant
Bit rate : 128 Kbps
Channel(s) : 2 channels
Sampling rate : 48.0 KHz
Resolution : 16 bits
Stream size : 110 MiB (15%)
Alignment : Aligned on interleaves
Interleave, duration : 40 ms (1.00 video frame)
Interleave, preload duration : 504 ms





Скачать Три.мушкетера.The.Three.Musketeers.(Джордж.Сидни).[1948.г.приключения.DVDRip].[DVO].torrent без регистрации
Золото ЗОЛОТАЯ РАЗДАЧА! СКАЧАННОЕ НЕ ЗАСЧИТЫВАЕТСЯ! Золото
Дата: Зарегистрирован   [ Тип: внутренний ] Как тут cкачать?
MAGNET ссылка
MAGNET ссылка


Скачать .torrent

15 KB

Статус: проверено
Скачан: торрент - 149 раз, раздача полностью - 4 раз
Размер: 745 MB
Оценка:  - (Голосов: 0)
Поблагодарили: 2
Поделиться ссылкой на эту раздачу с друзьями:
В контактеFacebookОдноклассникиTwitterLivejournalМой МирLiveinternet
 

 
Показать сообщения:    


Вы не можете начинать темы
Вы не можете отвечать на сообщения
Вы не можете редактировать свои сообщения
Вы не можете удалять свои сообщения
Вы не можете голосовать в опросах
Вы не можете прикреплять файлы к сообщениям
Вы можете скачивать файлы