Loading...
Error

Скачать Ночь в Роксбери / A Night at the Roxbury (Джон Фортенберри, Эми Хекерлинг) [1998, комедия, DVDRip-AVC] [MVO] + [AVO] (Живов) торрент без регистрации

 
Статистика раздачи
Размер:  1,46 GB   |    Скачан:  145 раз
Сидов:  1  [  0 KB/s  ]  
 
Автор Сообщение

leon030982

[] 

Ночь в Роксбери / A Night at the Roxbury
Страна: США
Жанр: комедия
Год выпуска: 1998
Продолжительность: 01:21:57
Перевод (1): Профессиональный (многоголосый закадровый)
Перевод (2): Авторский (одноголосый закадровый) - Ю.Живов
Cубтитры: английские
Оригинальная аудиодорожка: английский
Режиссер: Джон Фортенберри, Эми Хекерлинг
В ролях: Уилл Феррелл, Крис Кэттэн, Рэкуэл Гарднер, Вивека Полин, Полетт Брэкстон, Майкл М. Хортон, Ричард Франчезе, Дженнифер Кулидж, Майкл Кларк Дункан, Ричард Греко

Описание: Они носят неотразимые костюмы и золотые цепи. У них модные прически и стильные бакенбарды. Их среда обитания — ночные клубы. Стимул их жизни — красивые женщины. Их самая заветная мечта — попасть в престижный и недоступный клуб `Роксбери`…
«Ночь в Роксбери» — фильм, ставший классикой своего жанра. Фильм просто заряжен атмосферой 80—90-х годов прошлого века, времени disco, крутых причесок с бакенбардами и неотразимыми пиджаками.

Сэмпл
Качество видео: DVDRip-AVC [Исходник: DVD, NTSC (4:3), R1]
Формат видео: MKV
Видео: AVC, 716x352@716х392 (1.827:1), 23.976 кадр/сек, ~1550 Кбит/сек
Аудио 1: AC3, 48.0 КГц, ~224 Кбит/сек, 2 канала(ов) - RUS (MVO)
Аудио 2: AC3, 48.0 КГц, ~384 Кбит/сек, 6 канала(ов) - RUS (AVO, Ю.Живов)
Аудио 3: AC3, 48.0 КГц, ~384 Кбит/сек, 6 канала(ов) - ENG
Формат субтитров: softsub (SRT)
Русские дорожки с DVD от SJC, за что им большое спасибо.
General
Unique ID : 222421266347394392678900533491649597223 (0xA754C7182DE9D0699D68623B77F5CF27)
Complete name : A Night at the Roxbury.1998.DVDRip.AVC.AC3.2xRus.Eng.mkv
Format : Matroska
File size : 1.46 GiB
Duration : 1h 21mn
Overall bit rate : 2 544 Kbps
Movie name : Ночь в Роксбери / A Night at the Roxbury, 1998, DVDRip-AVC, 716х352@716х392
Encoded date : UTC 2011-07-15 01:33:26
Writing application : mkvmerge v4.8.0 ('I Got The...') сборка от May 24 2011 03:12:58
Writing library : libebml v1.2.0 + libmatroska v1.1.0
Video
ID : 1
Format : AVC
Format/Info : Advanced Video Codec
Format profile : High@L3.1
Format settings, CABAC : Yes
Format settings, ReFrames : 14 frames
Codec ID : V_MPEG4/ISO/AVC
Duration : 1h 21mn
Bit rate : 1 550 Kbps
Width : 716 pixels
Height : 352 pixels
Display aspect ratio : 16:9
Frame rate : 23.976 fps
Color space : YUV
Chroma subsampling : 4:2:0
Bit depth : 8 bits
Scan type : Progressive
Bits/(Pixel*Frame) : 0.257
Stream size : 880 MiB (59%)
Title : Ночь в Роксбери / A Night at the Roxbury, 1998, DVDRip-AVC, 716х352@716х392
Writing library : x264 core 115 r1995 c1e60b9
Encoding settings : cabac=1 / ref=14 / deblock=1:-2:-2 / analyse=0x3:0x133 / me=umh / subme=9 / psy=1 / psy_rd=1.00:0.10 / mixed_ref=1 / me_range=32 / chroma_me=1 / trellis=1 / 8x8dct=1 / cqm=0 / deadzone=21,11 / fast_pskip=1 / chroma_qp_offset=-6 / threads=2 / sliced_threads=0 / nr=0 / decimate=1 / interlaced=0 / bluray_compat=0 / constrained_intra=0 / bframes=10 / b_pyramid=2 / b_adapt=2 / b_bias=0 / direct=3 / weightb=1 / open_gop=0 / weightp=2 / keyint=250 / keyint_min=23 / scenecut=40 / intra_refresh=0 / rc_lookahead=60 / rc=2pass / mbtree=1 / bitrate=1550 / ratetol=1.0 / qcomp=0.70 / qpmin=10 / qpmax=51 / qpstep=4 / cplxblur=20.0 / qblur=0.5 / vbv_maxrate=8000 / vbv_bufsize=12000 / nal_hrd=none / ip_ratio=1.40 / aq=1:1.00
Language : English
Audio #1
ID : 2
Format : AC-3
Format/Info : Audio Coding 3
Mode extension : CM (complete main)
Codec ID : A_AC3
Duration : 1h 21mn
Bit rate mode : Constant
Bit rate : 224 Kbps
Channel(s) : 2 channels
Channel positions : Front: L R
Sampling rate : 48.0 KHz
Bit depth : 16 bits
Compression mode : Lossy
Delay relative to video : 920ms
Stream size : 131 MiB (9%)
Title : Профессиональный (многоголосый закадровый) - AC3, ~224 Кбит/сек, 2 канала, 48,0 КГц
Language : Russian
Audio #2
ID : 3
Format : AC-3
Format/Info : Audio Coding 3
Mode extension : CM (complete main)
Codec ID : A_AC3
Duration : 1h 21mn
Bit rate mode : Constant
Bit rate : 384 Kbps
Channel(s) : 6 channels
Channel positions : Front: L C R, Side: L R, LFE
Sampling rate : 48.0 KHz
Bit depth : 16 bits
Compression mode : Lossy
Delay relative to video : 906ms
Stream size : 225 MiB (15%)
Title : Авторский (одноголосый закадровый) Ю.Живов - AC3, ~384 Кбит/сек, 6 каналов, 48,0 КГц
Language : Russian
Audio #3
ID : 4
Format : AC-3
Format/Info : Audio Coding 3
Mode extension : CM (complete main)
Codec ID : A_AC3
Duration : 1h 21mn
Bit rate mode : Constant
Bit rate : 384 Kbps
Channel(s) : 6 channels
Channel positions : Front: L C R, Side: L R, LFE
Sampling rate : 48.0 KHz
Bit depth : 16 bits
Compression mode : Lossy
Delay relative to video : 3ms
Stream size : 225 MiB (15%)
Title : Оригинал - AC3, ~384 Кбит/сек, 6 каналов, 48,0 КГц
Language : English
Text
ID : 5
Format : UTF-8
Codec ID : S_TEXT/UTF8
Codec ID/Info : UTF-8 Plain Text
Title : Subtitles: Kirstine C. Baloti
Language : English



Скачать Ночь.в.Роксбери.A.Night.at.the.Roxbury.(Джон.Фортенберри.Эми.Хекерлинг).[1998.комедия.DVDRip-AVC].[MVO].+.[AVO].(Живов).torrent без регистрации
Золото ЗОЛОТАЯ РАЗДАЧА! СКАЧАННОЕ НЕ ЗАСЧИТЫВАЕТСЯ! Золото
Дата: Зарегистрирован   [ Тип: внутренний ] Как тут cкачать?
MAGNET ссылка
MAGNET ссылка


Скачать .torrent

15 KB

Статус: проверено DHT
Скачан: торрент - 145 раз, раздача полностью - 200 раз
Размер: 1,46 GB
Оценка:  - (Голосов: 0)
Поблагодарили: 1
Поделиться ссылкой на эту раздачу с друзьями:
В контактеFacebookОдноклассникиTwitterLivejournalМой МирLiveinternet
 

 
Показать сообщения:    


Вы не можете начинать темы
Вы не можете отвечать на сообщения
Вы не можете редактировать свои сообщения
Вы не можете удалять свои сообщения
Вы не можете голосовать в опросах
Вы не можете прикреплять файлы к сообщениям
Вы можете скачивать файлы