Loading...
Error

Скачать Донос / La denonciation (Жак Дониоль-Валькроз / Jacques Doniol-Valcroze) [1962, Франция, драма, криминал, DVDRip] Sub Rus + Original Fre торрент без регистрации

 
Статистика раздачи
Размер:  1,37 GB   |    Скачан:  141 раз
Сидов:  1  [  0 KB/s  ]  
 
Автор Сообщение

Dr_Shmurge

[] 

Донос / La denonciation
Страна: Франция
Жанр: драма, криминал
Год выпуска: 1962
Продолжительность: 01:41:23
Перевод: Субтитры
Cубтитры: русские (quest42good)
Оригинальная аудиодорожка: французский
Режиссер: Жак Дониоль-Валькроз / Jacques Doniol-Valcroze
В ролях: , Франсуаз Брион / Françoise Brion, Николь Берже / Nicole Berger, Саша Питоеф / Sacha Pitoëff, Франсуа Мэтр / François Maistre, Раймон Жером / Raymond Gerome.
Описание: Мишель Жюссьё, кинопродюсер, становится случайным свидетелем убийства журналиста в баре "Плейбой". Для полиции он не является подозреваемым, однако этот инцидент пробуждает в нем воспоминания о событиях почти двадцатилетней давности, которые он предпочёл бы забыть навсегда. Воспоминания о его участии в Сопротивлении, допросах в гестапо и поступке, за который Мишеля до сих пор мучают угрызения совести, не дают ему теперь покоя. "Наши маленькие жизни изобилуют большими ловушками. Мы попадаемся в них и, пытаясь выбраться, учимся на ошибках", - говорит ему Пьер Малле, лидер группы Сопротивления, членом которой был Мишель. Какой урок он извлечёт из ловушки, уготованной им судьбой на этот раз? Повторит ли однажды совершённую ошибку или станет другим человеком?

Доп. информация: Релиз группы:

Сэмпл: http://multi-up.com/670800
Качество видео: DVDRip
Формат видео: AVI
Видео: XviD, 720x320 (2.25:1), 25.000 fps, ~1,668 kbps
Аудио: 48 kHz, AC-3, 256kbps [2 channels]
Формат субтитров: softsub (SRT)
20
00:04:00,266 --> 00:04:01,872
- Что случилось?
- Звонит ваш отец.
21
00:04:01,992 --> 00:04:04,295
- Переключить звонок сюда?
- Нет, я поговорю из кабинета.
22
00:04:04,415 --> 00:04:06,407
- Сегодняшняя почта, мадам.
- Спасибо, Ли.
23
00:04:26,845 --> 00:04:29,010
Не беспокойся, с ним все в порядке.
Его просто оглушили.
24
00:04:29,101 --> 00:04:31,434
- Что он там делал?
- Забыл свой свитер.
25
00:04:32,204 --> 00:04:35,049
- Свитер?..
- Да, ходил забрать его.
26
00:04:35,169 --> 00:04:36,204
Со всеми бывает, правда?
27
00:04:38,350 --> 00:04:40,904
Конечно, он не знает.
Откуда ему знать?
28
00:04:41,562 --> 00:04:43,111
Но не беспокойся!
Он никого не убивал.
29
00:04:46,238 --> 00:04:47,715
- Как ты сказал?
- Мальтеррер.
30
00:04:47,835 --> 00:04:50,024
Мальтеррер?
Хорошо, я передам.
31
00:04:58,194 --> 00:05:02,194
Первое предупреждение:
заговоришь, мы тебя прикончим.
32
00:05:16,379 --> 00:05:18,031
Ну и как тут... убийца?
33
00:05:18,660 --> 00:05:20,266
Убийца чувствует себя хорошо.
34
00:05:21,392 --> 00:05:23,580
- А этот ужасный ушиб?
- Просто жутко болит голова.
35
00:05:24,960 --> 00:05:26,772
Папа звонил.
Можешь представить,
36
00:05:26,892 --> 00:05:29,185
Ещё бы, наверное, созывает
заседание Кабинета министров.
37
00:05:29,305 --> 00:05:32,086
- Ну да, почти...
- Твой бедный папочка!
Format : AVI
Format/Info : Audio Video Interleave
File size : 1.37 GiB
Duration : 1h 41mn
Overall bit rate : 1 931 Kbps
Writing application : VirtualDubMod 1.5.4.1 (build 2178/release)
Writing library : VirtualDubMod build 2178/release
Video
ID : 0
Format : MPEG-4 Visual
Format profile : Advanced Simple@L5
Format settings, BVOP : Yes
Format settings, QPel : No
Format settings, GMC : No warppoints
Format settings, Matrix : Custom
Codec ID : XVID
Codec ID/Hint : XviD
Duration : 1h 41mn
Bit rate : 1 668 Kbps
Width : 720 pixels
Height : 320 pixels
Display aspect ratio : 2.25:1
Frame rate : 25.000 fps
Resolution : 8 bits
Colorimetry : 4:2:0
Scan type : Progressive
Bits/(Pixel*Frame) : 0.290
Stream size : 1.18 GiB (86%)
Writing library : XviD 1.2.1 (UTC 2008-12-04)
Audio
ID : 1
Format : AC-3
Format/Info : Audio Coding 3
Format_Settings_ModeExtension : CM (complete main)
Codec ID : 2000
Duration : 1h 41mn
Bit rate mode : Constant
Bit rate : 256 Kbps
Channel(s) : 2 channels
Channel positions : Front: L R
Sampling rate : 48.0 KHz
Stream size : 186 MiB (13%)
Alignment : Aligned on interleaves
Interleave, duration : 96 ms (2.40 video frames)
Interleave, preload duration : 96 ms
Language : French



Скачать Донос.La.denonciation.(Жак.Дониоль-Валькроз.Jacques.Doniol-Valcroze).[1962.Франция.драма.криминал.DVDRip].Sub.Rus.+.Original.Fre.torrent без регистрации
Золото ЗОЛОТАЯ РАЗДАЧА! СКАЧАННОЕ НЕ ЗАСЧИТЫВАЕТСЯ! Золото
Дата: Зарегистрирован   [ Тип: внутренний ] Как тут cкачать?
MAGNET ссылка
MAGNET ссылка


Скачать .torrent

14 KB

Статус: проверено DHT
Скачан: торрент - 141 раз, раздача полностью - 0 раз
Размер: 1,37 GB
Оценка:  4 (Голосов: 1)
Поблагодарили: 2
Поделиться ссылкой на эту раздачу с друзьями:
В контактеFacebookОдноклассникиTwitterLivejournalМой МирLiveinternet
 

 
Показать сообщения:    


Вы не можете начинать темы
Вы не можете отвечать на сообщения
Вы не можете редактировать свои сообщения
Вы не можете удалять свои сообщения
Вы не можете голосовать в опросах
Вы не можете прикреплять файлы к сообщениям
Вы можете скачивать файлы