Loading...
Error

Скачать Уик-энд у Берни / Weekend at Bernie's (Тед Котчефф) [1989, комедия, BDRip-AVC] [AVO] (Михалев) + [AVO] (Живов) + [AVO] (Дохалов) + [MVO] торрент без регистрации

 
Статистика раздачи
Размер:  2,74 GB   |    Скачан:  147 раз

Полного источника не было: 8 часов

 
Автор Сообщение

leon030982

[] 

Уик-энд у Берни / Weekend at Bernie's
Страна: США
Жанр: комедия
Год выпуска: 1989
Продолжительность: 01:39:02
Перевод: Авторский (одноголосый закадровый А. Михалев)
Перевод (2): Авторский (одноголосый закадровый Ю. Живов)
Перевод (3): Авторский (одноголосый закадровый В. Дохалов)
Перевод (4): Профессиональный (многоголосый закадровый)
Cубтитры: нет
Оригинальная аудиодорожка: английский
Режиссер: Тед Котчефф
В ролях: Эндрю МакКарти, Джонатан Силвермен, Катрин Мэри Стюарт, Терри Кайзер, Дон Кэлфа, Катрин Паркс, Элуиз Деджориа, Грегори Салата, Луис Гьямбалво, Тед Котчефф

Описание: Двое молодых работников страховой компании обнаруживают в бухгалтерских книгах, что кто-то четыре раза получил деньги по страховому полису покойника, о чем они честно сообщили своему начальнику Берни, живущему явно не по средствам. Берни, а именно он и занимался хищениями, пригласил ребят на уик-энд в свой роскошный дом на океане и одновременно попросил своих друзей из мафии убить своих слишком старательных подчиненных.
Но босс мафии велел убить самого Берни, узнав, что тот «окучивает» его любовницу, что и было сделано в роскошном доме на океане при помощи укола в ягодицу. Ребятам, приехавшим на уикенд, пришлось выдавать Берни за живого, что было нетрудно, учитывая веселое состояние многочисленных гостей.

Сэмпл: http://multi-up.com/470970
Качество видео: BDRip-AVC, исходник - BDRemux на HDclub
Видео: MPEG-4 AVC Video(х264), 1072x600, 1.7778:1(16:9), 23.976 fps, 3 000 Kbps, 0.195 bit/pixel
Аудио: Русский: 44 kHz, AC3, 2 (L,R) ch, ~ 192.00 kbps
Аудио 2: Русский: 44 kHz, AC3, 2 (L,R) ch, ~ 192.00 kbps
Аудио 3: Русский: 44 kHz, AC3, 2 (L,R) ch, ~ 192.00 kbps
Аудио 4: Русский: 48 kHz, AC3, 2 (L,R) ch, ~ 192.00 kbps
Аудио 5: Английский: 48 kHz, AC3, 2 (L,R) ch, ~ 192.00 kbps
VIDEO ENCODING
------------------------------
Encoding video to: G:\Temp\temp\0.mkv
x264 3000kbps 1072x600 23.976fps (142412 frames)
...first pass...
x264.exe: --pass 1 --bitrate 3000 --level 4.1 --ref 10 --deblock -2:-1 --merange 32 --bframes 8 --direct auto --b-adapt 2 --trellis 2 --no-fast-pskip --psy-rd 1.0:0.1 --threads 12 --qcomp 0.70 --vbv-bufsize 14000 --vbv-maxrate 25000 --chroma-qp-offset -3 --partitions all --subme 10 --me umh --rc-lookahead 100 --sar 1:1 --stats "G:\Temp\temp\0.log" --output NUL "G:\Temp\0082.avs"
avs [info]: 1072x600p 1:1 @ 2500000/104271 fps (cfr)
x264 [info]: using SAR=1/1
x264 [info]: using cpu capabilities: MMX2 SSE2Slow SlowCTZ
x264 [info]: profile Main, level 4.1
x264 [info]: frame I:1002 Avg QP:17.91 size:117862
x264 [info]: frame P:36524 Avg QP:19.46 size: 31908
x264 [info]: frame B:104886 Avg QP:23.47 size: 8686
x264 [info]: consecutive B-frames: 4.7% 1.3% 9.4% 30.2% 23.5% 28.3% 1.9% 0.6% 0.2%
x264 [info]: mb I I16..4: 20.0% 0.0% 80.0%
x264 [info]: mb P I16..4: 20.3% 0.0% 0.0% P16..4: 65.8% 0.0% 0.0% 0.0% 0.0% skip:13.9%
x264 [info]: mb B I16..4: 2.6% 0.0% 0.0% B16..8: 31.5% 0.0% 0.0% direct:14.1% skip:51.8% L0:26.2% L1:38.9% BI:34.9%
x264 [info]: final ratefactor: 20.28
x264 [info]: direct mvs spatial:100.0% temporal:0.0%
x264 [info]: coded y,uvDC,uvAC intra: 71.7% 73.3% 44.9% inter: 21.6% 20.7% 2.6%
x264 [info]: i16 v,h,dc,p: 33% 26% 27% 15%
x264 [info]: i4 v,h,dc,ddl,ddr,vr,hd,vl,hu: 21% 18% 17% 4% 10% 7% 7% 7% 9%
x264 [info]: i8c dc,h,v,p: 53% 19% 22% 6%
x264 [info]: Weighted P-Frames: Y:1.1% UV:0.5%
x264 [info]: kb/s:2955.72
x264 [total]: encoded 142412 frames, 3.41 fps, 2955.72 kb/s
...last pass...
x264.exe: --pass 2 --bitrate 3000 --level 4.1 --ref 10 --deblock -2:-1 --merange 32 --bframes 8 --direct auto --b-adapt 2 --trellis 2 --no-fast-pskip --psy-rd 1.0:0.1 --threads 12 --qcomp 0.70 --vbv-bufsize 14000 --vbv-maxrate 25000 --chroma-qp-offset -3 --partitions all --subme 10 --me umh --rc-lookahead 100 --stats "G:\Temp\temp\0.log" --sar 1:1 --output "G:\Temp\temp\0.mkv" "G:\Temp\0082.avs"
avs [info]: 1072x600p 1:1 @ 2500000/104271 fps (cfr)
x264 [info]: using SAR=1/1
x264 [info]: using cpu capabilities: MMX2 SSE2Slow SlowCTZ
x264 [info]: profile High, level 4.1
x264 [info]: frame I:1002 Avg QP:19.63 size: 99042
x264 [info]: frame P:36524 Avg QP:20.51 size: 32113
x264 [info]: frame B:104886 Avg QP:24.68 size: 9092
x264 [info]: consecutive B-frames: 4.7% 1.3% 9.4% 30.2% 23.5% 28.3% 1.9% 0.6% 0.2%
x264 [info]: mb I I16..4: 8.4% 66.3% 25.3%
x264 [info]: mb P I16..4: 0.8% 8.0% 1.9% P16..4: 46.3% 23.4% 7.4% 0.6% 0.5% skip:11.1%
x264 [info]: mb B I16..4: 0.1% 0.9% 0.3% B16..8: 40.5% 10.3% 3.4% direct: 4.4% skip:40.1% L0:38.9% L1:47.9% BI:13.1%
x264 [info]: 8x8 transform intra:73.2% inter:59.2%
x264 [info]: direct mvs spatial:99.0% temporal:1.0%
x264 [info]: coded y,uvDC,uvAC intra: 91.3% 89.9% 68.7% inter: 21.5% 23.0% 7.4%
x264 [info]: i16 v,h,dc,p: 43% 17% 7% 33%
x264 [info]: i8 v,h,dc,ddl,ddr,vr,hd,vl,hu: 11% 9% 3% 10% 15% 14% 15% 11% 12%
x264 [info]: i4 v,h,dc,ddl,ddr,vr,hd,vl,hu: 12% 7% 2% 9% 15% 15% 14% 12% 13%
x264 [info]: i8c dc,h,v,p: 42% 21% 20% 17%
x264 [info]: Weighted P-Frames: Y:1.1% UV:0.5%
x264 [info]: ref P L0: 47.8% 14.0% 18.1% 4.7% 4.6% 2.9% 3.0% 1.5% 1.6% 1.5% 0.4% 0.0%
x264 [info]: ref B L0: 87.4% 6.8% 2.3% 1.1% 0.8% 0.6% 0.5% 0.3% 0.2%
x264 [info]: ref B L1: 96.8% 3.2%
x264 [info]: kb/s:2997.68
x264 [total]: encoded 142412 frames, 1.37 fps, 2997.68 kb/s
Format : Matroska
File size : 2.74 GiB
Duration : 1h 39mn
Overall bit rate : 3 961 Kbps
Encoded date : UTC 2011-04-06 07:09:03
Writing application : mkvmerge v2.4.2 ('Oh My God') built on Jan 18 2009 17:30:28
Writing library : libebml v0.7.7 + libmatroska v0.8.1
Video
ID : 1
Format : AVC
Format/Info : Advanced Video Codec
Format profile : High@L4.1
Format settings, CABAC : Yes
Format settings, ReFrames : 10 frames
Muxing mode : Container profile=Unknown@4.1
Codec ID : V_MPEG4/ISO/AVC
Duration : 1h 39mn
Bit rate : 3 000 Kbps
Width : 1 072 pixels
Height : 600 pixels
Display aspect ratio : 16:9
Frame rate : 23.976 fps
Color space : YUV
Chroma subsampling : 4:2:0
Bit depth : 8 bits
Scan type : Progressive
Bits/(Pixel*Frame) : 0.195
Stream size : 2.02 GiB (74%)
Title : Weekend at Bernie's
Writing library : x264 core 108 r1790 8eaf8a6
Encoding settings : cabac=1 / ref=10 / deblock=1:-2:-1 / analyse=0x3:0x133 / me=umh / subme=10 / psy=1 / psy_rd=1.00:0.10 / mixed_ref=1 / me_range=32 / chroma_me=1 / trellis=2 / 8x8dct=1 / cqm=0 / deadzone=21,11 / fast_pskip=0 / chroma_qp_offset=-6 / threads=12 / sliced_threads=0 / nr=0 / decimate=1 / interlaced=0 / constrained_intra=0 / bframes=8 / b_pyramid=2 / b_adapt=2 / b_bias=0 / direct=3 / weightb=1 / open_gop=0 / weightp=2 / keyint=250 / keyint_min=23 / scenecut=40 / intra_refresh=0 / rc_lookahead=100 / rc=2pass / mbtree=1 / bitrate=3000 / ratetol=1.0 / qcomp=0.70 / qpmin=10 / qpmax=51 / qpstep=4 / cplxblur=20.0 / qblur=0.5 / vbv_maxrate=25000 / vbv_bufsize=14000 / ip_ratio=1.40 / aq=1:1.00 / nal_hrd=none
Language : English
Audio #1
ID : 2
Format : AC-3
Format/Info : Audio Coding 3
Mode extension : CM (complete main)
Codec ID : A_AC3
Duration : 1h 39mn
Bit rate mode : Constant
Bit rate : 192 Kbps
Channel(s) : 2 channels
Channel positions : Front: L R
Sampling rate : 44.1 KHz
Stream size : 136 MiB (5%)
Title : AC3 2.0ch А.Михалев
Audio #2
ID : 3
Format : AC-3
Format/Info : Audio Coding 3
Mode extension : CM (complete main)
Codec ID : A_AC3
Duration : 1h 39mn
Bit rate mode : Constant
Bit rate : 192 Kbps
Channel(s) : 2 channels
Channel positions : Front: L R
Sampling rate : 44.1 KHz
Stream size : 136 MiB (5%)
Title : AC3 2.0ch Ю.Живов
Audio #3
ID : 4
Format : AC-3
Format/Info : Audio Coding 3
Mode extension : CM (complete main)
Codec ID : A_AC3
Duration : 1h 39mn
Bit rate mode : Constant
Bit rate : 192 Kbps
Channel(s) : 2 channels
Channel positions : Front: L R
Sampling rate : 44.1 KHz
Stream size : 136 MiB (5%)
Title : AC3 2.0ch В.Дохалов
Audio #4
ID : 5
Format : AC-3
Format/Info : Audio Coding 3
Mode extension : CM (complete main)
Codec ID : A_AC3
Duration : 1h 39mn
Bit rate mode : Constant
Bit rate : 192 Kbps
Channel(s) : 2 channels
Channel positions : Front: L R
Sampling rate : 48.0 KHz
Stream size : 136 MiB (5%)
Title : AC3 2.0ch MVO
Audio #5
ID : 6
Format : AC-3
Format/Info : Audio Coding 3
Mode extension : CM (complete main)
Codec ID : A_AC3
Duration : 1h 39mn
Bit rate mode : Constant
Bit rate : 192 Kbps
Channel(s) : 2 channels
Channel positions : Front: L R
Sampling rate : 48.0 KHz
Stream size : 136 MiB (5%)
Title : AC3 2.0ch Eng.



Скачать Уик-энд.у.Берни.Weekend.at.Bernie's.(Тед.Котчефф).[1989.комедия.BDRip-AVC].[AVO].(Михалев).+.[AVO].(Живов).+.[AVO].(Дохалов).+.[MVO].torrent без регистрации
Золото ЗОЛОТАЯ РАЗДАЧА! СКАЧАННОЕ НЕ ЗАСЧИТЫВАЕТСЯ! Золото
Дата: Зарегистрирован   [ Тип: внутренний ] Как тут cкачать?
MAGNET ссылка
MAGNET ссылка


Скачать .torrent

14 KB

Статус: проверено
Скачан: торрент - 147 раз, раздача полностью - 8 раз
Размер: 2,74 GB
Оценка:  - (Голосов: 0)
Поблагодарили: 1
Поделиться ссылкой на эту раздачу с друзьями:
В контактеFacebookОдноклассникиTwitterLivejournalМой МирLiveinternet
 

 
Показать сообщения:    


Вы не можете начинать темы
Вы не можете отвечать на сообщения
Вы не можете редактировать свои сообщения
Вы не можете удалять свои сообщения
Вы не можете голосовать в опросах
Вы не можете прикреплять файлы к сообщениям
Вы можете скачивать файлы