Loading...
Error

Скачать Искупление / Atonement (Джо Райт) [2007, драма, мелодрама, детектив, военный, BDRip-AVC] [DUB] торрент без регистрации

 
Статистика раздачи
Размер:  2,18 GB   |    Скачан:  114 раз
Сидов:  1  [  0 KB/s  ]  
 
Автор Сообщение

Jenek

[] 

Искупление / Atonement (2007) BDRip-AVC от PowerTracker

Жанр: драма, мелодрама, детектив, военный
Страна: Франция , Великобритания
Режиссер: Джо Райт
В ролях: Кира Найтли, Джеймс МакЭвой, Ромола Гарай, Сирша Ронан, Бренда Блетин, Ванесса Редгрейв, Джуно Темпл, Джина МакКи, Альфи Оуэн-Аллен, Мишель Дункан, Харрье Уолтер, Нонсо Анози, Дэниел Мэйс

Сюжет фильма: 13-летняя Бриони обладает превосходным воображением и пишет пьесы. Она знает, что сын прислуги Робби влюблен в ее старшую сестру Сесилию и та отвечает ему взаимностью. Но когда ее кузина Лола становится жертвой насильника, Бриони уверенно показывает на Робби ее воображение дорисовывает картину насилия. Робби отправляется в тюрьму, а Сесилия отказывается верить Бриони, рождая страшную вражду между сестрами. Действие фильма начинается в 1935 году и разворачивается на фоне Второй мировой войны.

Мировая премьера: 29 августа 2007
Российская премьера: 17 января 2008, «UPI»



Продолжительность: 02:02:49
Качество видео: BDRip-AVC
Видео: кодек: x264, размер кадра: 1022x554, битрейт: 1963 кб/с, bit/pixel: 0.145
Аудио #1: язык: Русский , перевод: дублированный (дубляж), кодек: AC3 5.1, битрейт: 384.00 кб/с
Аудио #2: язык: Английский , перевод: оригинал, кодек: AC3 2.0, битрейт: 192.00 кб/с
Субтитры: тип: вшитые отключаемые, формат: SRT, язык: Русский, Английский

&
Общее
Уникальный идентификатор : 234075839638206934044228853608829186373 (0xB0195DEBF53449A1BAA1BE378AC47145)
Полное имя : D:Atonement.2007.BDRip-AVC.PT.mkv
Формат : Matroska
Версия формата : Version 2
Размер файла : 2,18 Гбайт
Продолжительность : 2 ч. 2 м.
Общий поток : 2538 Кбит/сек
Название фильма : Искупление / Atonement (2007) BDRip-AVC rip by rulya74
Дата кодирования : UTC 2012-03-20 14:20:39
Программа кодирования : mkvmerge v5.2.1 ('A Far Off Place') built on Jan 2 2012 23:21:10
Библиотека кодирования : libebml v1.2.3 + libmatroska v1.3.0

Видео
Идентификатор : 1
Формат : AVC
Формат/Информация : Advanced Video Codec
Профиль формата : High@L4.1
Параметр CABAC формата : Да
Параметр ReFrames формата : 11 кадров
Идентификатор кодека : V_MPEG4/ISO/AVC
Продолжительность : 2 ч. 2 м.
Битрейт : 1963 Кбит/сек
Ширина : 1022 пикселя
Высота : 554 пикселя
Соотношение сторон : 16:9
Частота кадров : 23,976 кадра/сек
Цветовое пространство : YUV
Субдискретизация насыщенности : 4:2:0
Битовая глубина : 8 бит
Тип развёртки : Прогрессивная
Бит/(Пиксели*Кадры) : 0.145
Размер потока : 1,64 Гбайт (75%)
Библиотека кодирования : x264 core 120 r2164 da19765
Настройки программы : cabac=1 / ref=11 / deblock=1:-3:-3 / analyse=0x3:0x113 / me=umh / subme=9 / psy=1 / psy_rd=1.00:0.00 / mixed_ref=1 / me_range=48 / chroma_me=1 / trellis=2 / 8x8dct=1 / cqm=0 / deadzone=21,11 / fast_pskip=1 / chroma_qp_offset=-2 / threads=5 / sliced_threads=0 / nr=0 / decimate=1 / interlaced=0 / bluray_compat=0 / constrained_intra=0 / bframes=10 / b_pyramid=2 / b_adapt=1 / b_bias=0 / direct=3 / weightb=1 / open_gop=0 / weightp=2 / keyint=240 / keyint_min=22 / scenecut=40 / intra_refresh=0 / rc=2pass / mbtree=0 / bitrate=1963 / ratetol=1.0 / qcomp=0.60 / qpmin=10 / qpmax=51 / qpstep=4 / cplxblur=20.0 / qblur=0.5 / ip_ratio=1.40 / pb_ratio=1.30 / aq=1:1.00
Default : Да
Forced : Нет

Аудио #1
Идентификатор : 2
Формат : AC-3
Формат/Информация : Audio Coding 3
Расширение режима : CM (complete main)
Идентификатор кодека : A_AC3
Продолжительность : 2 ч. 2 м.
Вид битрейта : Постоянный
Битрейт : 384 Кбит/сек
Каналы : 6 каналов
Расположение каналов : Front: L C R, Side: L R, LFE
Частота : 48,0 КГц
Битовая глубина : 16 бит
Метод сжатия : С потерями
Размер потока : 337 Мбайт (15%)
Заголовок : Дубляж
Язык : Russian
Default : Да
Forced : Нет

Аудио #2
Идентификатор : 3
Формат : AC-3
Формат/Информация : Audio Coding 3
Расширение режима : CM (complete main)
Идентификатор кодека : A_AC3
Продолжительность : 2 ч. 2 м.
Вид битрейта : Постоянный
Битрейт : 192 Кбит/сек
Каналы : 2 канала
Расположение каналов : Front: L R
Частота : 48,0 КГц
Битовая глубина : 16 бит
Метод сжатия : С потерями
Размер потока : 169 Мбайт (8%)
Заголовок : Оригинал
Язык : English
Default : Нет
Forced : Нет

Текст #1
Идентификатор : 4
Формат : UTF-8
Идентификатор кодека : S_TEXT/UTF8
Идентификатор кодека/Информация : UTF-8 Plain Text
Язык : Russian
Default : Нет
Forced : Нет

Текст #2
Идентификатор : 5
Формат : UTF-8
Идентификатор кодека : S_TEXT/UTF8
Идентификатор кодека/Информация : UTF-8 Plain Text
Язык : English
Default : Нет
Forced : Нет

Меню
00:00:00.000 : en:First Play (Main Titles)
00:06:19.921 : en:Two Figures By A Fountain
00:13:43.281 : en:Closer Relations
00:20:16.215 : en:A Written Apology
00:25:55.387 : en:Interference
00:32:52.762 : en:Act of Love
00:38:33.353 : en:No Harm Done
00:43:24.894 : en:False Witness
00:49:24.628 : en:Serving Time
00:57:40.290 : en:Save Me
01:04:09.763 : en:By the Sea
01:10:14.794 : en:Putting Things Right
01:17:18.092 : en:Remembering
01:20:00.170 : en:Not Ready
01:25:00.595 : en:Can't Escape
01:28:37.979 : en:Wounded
01:34:17.652 : en:With My Own Eyes
01:37:28.801 : en:Telling the Truth
01:46:06.235 : en:Final Act
01:54:21.396 : en:End Titles



Скачать Искупление.Atonement.(Джо.Райт).[2007.драма.мелодрама.детектив.военный.BDRip-AVC].[DUB].torrent без регистрации
Золото ЗОЛОТАЯ РАЗДАЧА! СКАЧАННОЕ НЕ ЗАСЧИТЫВАЕТСЯ! Золото
Дата: Зарегистрирован   [ Тип: внутренний ] Как тут cкачать?
MAGNET ссылка
MAGNET ссылка


Скачать .torrent

11 KB

Статус: проверено DHT
Скачан: торрент - 114 раз, раздача полностью - 54 раз
Размер: 2,18 GB
Оценка:  - (Голосов: 0)
Поблагодарили: 2
Поделиться ссылкой на эту раздачу с друзьями:
В контактеFacebookОдноклассникиTwitterLivejournalМой МирLiveinternet
 

 
Показать сообщения:    


Вы не можете начинать темы
Вы не можете отвечать на сообщения
Вы не можете редактировать свои сообщения
Вы не можете удалять свои сообщения
Вы не можете голосовать в опросах
Вы не можете прикреплять файлы к сообщениям
Вы можете скачивать файлы