Loading...
Error

Скачать Квадрофения / Quadrophenia (Фрэнк Роддэм) [1979, драма, криминал, музыка, HDTVRip] [MVO]+[Sub] торрент без регистрации

 
Статистика раздачи
Размер:  1,71 GB   |    Скачан:  140 раз
Сидов:  1  [  0 KB/s  ]  
 
Автор Сообщение

Marsianka

[] 

Жанр: драма, криминал, музыка
Страна: Великобритания
Режиссер: Фрэнк Роддэм
В ролях: Фил Дэниелс, Лесли Эш, Филип Дэвис, Mark Wingett, Стинг, Рэй Уинстоун, Гарри Купер, Гари Снейл, Тойа Уиллкокс, Тревор Лэйрд

Сюжет фильма: Двадцатилетний Джим беззаботно проводит время с такими же друзьями, как он сам, называющими себя модами. Наркотики, секс и потасовки с рокерами.

Действие картины происходит в 1964 году, а за кадром звучит музыка группы The Who с альбома «Квадрофения&raquo. Эпоха первых молодежных бунтов и подлинных переворотов в умонастроениях, нравах и эстетических пристрастиях нового поколения, родившегося в годы войны или сразу после ее окончания. Простой сюжет о поре взросления и утраты наивных юношеских иллюзий приобретает дополнительное измерение.

Жесткая, порой беспощадная режиссура дебютанта Фрэнка Роддэма, ранее работавшего на телевидении, лишает те времена начала «бурных шестидесятых» не только романтически-ностальгического ореола, но и метафорической, иносказательной трактовки, которая была свойственна, например, блистательной рок-опере «Томми» Кена Рассела (тоже на основе альбома группы &laquoThe Who») или снятой через три года после «Квадрофении» музыкальной притче «Пинк Флойд Стена» Алана Паркера.

Лента Роддэма гораздо ближе по манере к «кино рассерженных» именно того периода на рубеже 5060-х годов или к чуть более позднему произведению «Если» Линдсея Андерсона, одного из тех, кто до конца остался верен этому направлению. Постановщик «Квадрофении» понимает подчас уродливые проявления молодежной субкультуры как рвущийся наружу дух бунтарства, бессознательного протеста против все еще консервативной Англии, как природно заложенное сопротивление молодых косным, устаревшим взглядам и традициям старших. Песня «Моё поколение» группы &laquoThe Who» была гимном английской молодежи начала 60-х годов. А сколько других музыкальных сочинений с иным или точно таким же названием (как, допустим, у Константина Кинчева из «Алисы») становились своеобразным воззванием к юным, выражением их представлений о «буре и натиске» в самые разные времена! И достоинством картины «Квадрофения» является как раз то, что, воспроизводя без прикрас конкретную эпоху, она по своему пафосу развенчания «прекрасных надежд» обращена не в прошлое, а в будущее, воспринимаясь актуально и свежо даже сейчас.


Мировая премьера: 14 мая 1979



Продолжительность: 01:55:11
Качество видео: HDTVRip
Видео: кодек: XviD, размер кадра: 720x400, битрейт: 1411 кб/с, bit/pixel: 0.196
Аудио #1: язык: Английский , перевод: оригинал, кодек: AC3 5.1, битрейт: 384 кб/с
Аудио #2: язык: Русский , перевод: многоголосый закадровый (Ryazan Retro Scooters Community), кодек: AC3 2.0, битрейт: 320 кб/с [отдельно]
Субтитры (внешние, srt): русский (x2), английский
Присутствует ненормативная лексика!

Релиз группы: Автор рипа:
Общее
Формат : AVI
Формат/Информация : Audio Video Interleave
Размер файла : 1,45 Гбайт
Продолжительность : 1 ч. 55 м.
Общий поток : 1805 Кбит/сек
Название фильма : Квадрофения / Quadrophenia (1979) HDTVRip
Режиссёр : tise
Программа кодирования : VirtualDubModRus 1.5.10.2 (build 2542/release)
Библиотека кодирования : VirtualDubMod build 2542/release
Правообладатель : www.powertracker.org

Видео
Идентификатор : 0
Формат : MPEG-4 Visual
Профиль формата : Advanced Simple@L5
Параметр BVOP формата : 1
Параметр QPel формата : Нет
Параметр GMC формата : Без точки перехода
Параметр матрицы формата : Default (MPEG)
Идентификатор кодека : XVID
Идентификатор кодека/Подсказка : XviD
Продолжительность : 1 ч. 55 м.
Битрейт : 1411 Кбит/сек
Ширина : 720 пикселей
Высота : 400 пикселей
Соотношение сторон : 16:9
Частота кадров : 25,000 кадров/сек
Цветовое пространство : YUV
Субдискретизация насыщенности : 4:2:0
Битовая глубина : 8 бит
Тип развёртки : Прогрессивная
Метод сжатия : С потерями
Бит/(Пиксели*Кадры) : 0.196
Размер потока : 1,14 Гбайт (78%)
Библиотека кодирования : XviD 1.2.1 (UTC 2008-12-04)

Аудио
Идентификатор : 1
Формат : AC-3
Формат/Информация : Audio Coding 3
Профиль формата : Dolby Digital
Расширение режима : CM (complete main)
Идентификатор кодека : 2000
Продолжительность : 1 ч. 55 м.
Вид битрейта : Постоянный
Битрейт : 384 Кбит/сек
Каналы : 2 канала
Расположение каналов : Front: L R
Частота : 48,0 КГц
Битовая глубина : 16 бит
Метод сжатия : С потерями
Размер потока : 316 Мбайт (21%)
Выравнивание : Разделение по промежуткам
Продолжительность промежутка : 40 мс. (1,00 видеокадр)
Время предзагрузки промежутка : 500 мс.



Скачать Квадрофения.Quadrophenia.(Фрэнк.Роддэм).[1979.драма.криминал.музыка.HDTVRip].[MVO]+[Sub].torrent без регистрации
Золото ЗОЛОТАЯ РАЗДАЧА! СКАЧАННОЕ НЕ ЗАСЧИТЫВАЕТСЯ! Золото
Дата: Зарегистрирован   [ Тип: внутренний ] Как тут cкачать?
MAGNET ссылка
MAGNET ссылка


Скачать .torrent

18 KB

Статус: проверено DHT
Скачан: торрент - 140 раз, раздача полностью - 91 раз
Размер: 1,71 GB
Оценка:  - (Голосов: 0)
Поблагодарили: 1
Поделиться ссылкой на эту раздачу с друзьями:
В контактеFacebookОдноклассникиTwitterLivejournalМой МирLiveinternet
 

 
Показать сообщения:    


Вы не можете начинать темы
Вы не можете отвечать на сообщения
Вы не можете редактировать свои сообщения
Вы не можете удалять свои сообщения
Вы не можете голосовать в опросах
Вы не можете прикреплять файлы к сообщениям
Вы можете скачивать файлы