Loading...
Error

Скачать Смерть в раю / Death In Paradise (Полный 1-ый сезон) (Пол Харрисон, Роджер Голдби, Чарльз Палмер) [2011, детектив, комедия, HDTVRip] [DVO] (студия "Райдо") торрент без регистрации

 
Статистика раздачи
Размер:  4,5 GB   |    Скачан:  182 раза
Сидов:  1  [  0 KB/s  ]  
 
Автор Сообщение

leon030982

[] 

Смерть в раю / Death In Paradise
Год выпуска: 2011
Страна: Великобритания
Жанр: детектив, комедия
Продолжительность: 00:58:39
Перевод: Любительский двухголосый закадровый, студия "Райдо"
Русские субтитры: нет
Автор перевода: Notabenoid
Субтитры: отсутствуют
Режиссёр: Пол Харрисон, Роджер Голдби, Чарльз Палмер
В ролях: Бен Миллер, Сара Мартинс, Гари Карр, Дэнни Джон-Джулс, Элис Хенли, Камилла Бипут, Джини Спарк, Миранда Рэйсон, Stany Coppet, Ли Бордман, Софи Уинклман

Описание: Чрезвычайно увлекательные детективные истории, разворачивающиеся в потрясающих тропических декорациях. Инспектора Лондонского управления полиции Ричарда Пула отправляют вести расследование убийства в одно из самых ужасных, по его мнению, мест на земле - карибский остров Сент-Мари. Ещё бы!
Остров, где нет бесподобного английского ростбифа, где не допросишься хорошего английского чая, а газету "Таймс" никто даже и не думает доставлять самолётом к завтраку!!!

Качество: HDTVRip
Формат: AVI
Видео кодек: XVID
Аудио кодек: MP3
Видео: 624x352 (1.773:1), 25.000 fps, XVID(XviD 1.2.1), 1 169 Kbps, 0.213 bit/pixel
Аудио: MPEG Audio Layer 3 48.0 kHz stereo 192Kbps
Внимание! Раздача ведётся путём добавления новых серий; при каждом добавлении создаётся новый торрент. Чтобы начать докачку новой серии, пользователям необходимо сделать следующее:
(1) остановить скачивание,
(2) удалить старый торрент у себя из клиента (старые серии удалять не надо),
(3) скачать новый торрент и запустить его у себя в клиенте вместо старого, при этом указать клиенту путь в старую папку куда и должно происходить скачивание новых серий.
Ваш клиент при этом должен произвести хеширование (проверку) старой папки (если не производит сам - помогите ему сделать это), и будет докачивать только те серии которых у вас ещё нет. Старые серии при этом не удаляются, а продолжают раздаваться!
Eсли вы уже удалили старые серии, то предотвратить повторную закачку старых серий можно, отжав галочку в соответствующих местах при запуске нового торрента. По возможности, желательно не удалять старые серии как можно дольше чтобы релизёр не столько продолжал раздавать старые серии, а смог сконцентрироваться на новых.
Полина Касаткина,
Сергей Калугин
D:\torrents\paradise\deathinparadise01.avi
General
Complete name : D:\torrents\paradise\deathinparadise01.avi
Format : AVI
Format/Info : Audio Video Interleave
File size : 577 MiB
Duration : 58mn 39s
Overall bit rate : 1 374 Kbps
Writing application : Lavf54.1.100
Video #0
ID : 0
Format : MPEG-4 Visual
Format profile : Advanced Simple@L5
Format settings, BVOP : 2
Format settings, QPel : No
Format settings, GMC : No warppoints
Format settings, Matrix : Default (H.263)
Codec ID : XVID
Codec ID/Hint : XviD
Duration : 58mn 39s
Bit rate : 1 169 Kbps
Width : 624 pixels
Height : 352 pixels
Display aspect ratio : 16:9
Frame rate : 25.000 fps
Color space : YUV
Chroma subsampling : 4:2:0
Bit depth : 8 bits
Scan type : Progressive
Compression mode : Lossy
Bits/(Pixel*Frame) : 0.213
Stream size : 491 MiB (85%)
Writing library : XviD 1.2.1 (UTC 2008-12-04)
Audio #1
ID : 1
Format : MPEG Audio
Format version : Version 1
Format profile : Layer 3
Codec ID : 55
Codec ID/Hint : MP3
Duration : 58mn 39s
Bit rate mode : Constant
Bit rate : 192 Kbps
Channel(s) : 2 channels
Sampling rate : 48.0 KHz
Compression mode : Lossy
Stream size : 80.6 MiB (14%)
Alignment : Aligned on interleaves
Interleave, duration : 24 ms (0.60 video frame)



Скачать Смерть.в.раю.Death.In.Paradise.(Полный.1-ый.сезон).(Пол.Харрисон.Роджер.Голдби.Чарльз.Палмер).[2011.детектив.комедия.HDTVRip].[DVO].(студия."Райдо").torrent без регистрации
Золото ЗОЛОТАЯ РАЗДАЧА! СКАЧАННОЕ НЕ ЗАСЧИТЫВАЕТСЯ! Золото
Дата: Зарегистрирован   [ Тип: внутренний ] Как тут cкачать?
MAGNET ссылка
MAGNET ссылка


Скачать .torrent

12 KB

Статус: проверено DHT
Скачан: торрент - 182 раз, раздача полностью - 153 раз
Размер: 4,5 GB
Оценка:  5 (Голосов: 1)
Поблагодарили: 2
Поделиться ссылкой на эту раздачу с друзьями:
В контактеFacebookОдноклассникиTwitterLivejournalМой МирLiveinternet
 

 
Показать сообщения:    


Вы не можете начинать темы
Вы не можете отвечать на сообщения
Вы не можете редактировать свои сообщения
Вы не можете удалять свои сообщения
Вы не можете голосовать в опросах
Вы не можете прикреплять файлы к сообщениям
Вы можете скачивать файлы