Loading...
Error

Скачать Облава на блатных / Облава на торговцев наркотиками / Razzia sur la Chnouf (Анри Декуэн) [1955, триллер, драма, криминал, BDRip-AVC] [AVO] (Р.Янкелевич) торрент без регистрации

 
Статистика раздачи
Размер:  1,46 GB   |    Скачан:  150 раз
Сидов:  1  [  0 KB/s  ]  
 
Автор Сообщение

leon030982

[] 

Облава на блатных / Облава на торговцев наркотиками / Razzia sur la Chnouf
Страна: Франция
Жанр: триллер, драма, криминал
Год выпуска: 1955
Продолжительность: 01:44:50
Перевод: Авторский (одноголосый закадровый) Р.Янкелевич
Cубтитры: русские, английские, французские
Оригинальная аудиодорожка: французский
Режиссер: Анри Декуэн
В ролях: Жан Габен, Марсель Далио, Лино Вентура, Альбер Реми, Лиля Кедрова, Пьер-Луи, Жаклин Порель, Ролан Армонтель

Описание: Габен играет ганстера, вернувшегося из Америки для помощи французским коллегам в деле торговли наркотиками. Бизнес приходит в упадок из-за атак полиции и воровства сотрудников, нужна железная воля для того, чтобы привести дела в порядок. Странно притягательное, хотя и очень неровное кино. Напоминает немного Мельвиля, хотя и не столь стильно снятое. Режиссёр показывает изнанку Парижа, его темное дно, в мире фильма царит вечная ночь, практически всё действие происходит на тёмных улицах и в искусственном свете электрических ламп притонов и забегаловок. Вентура, в одной из своих первых ролей в кино, играет киллера банды в своей узнаваемой манере. Проходные кадры неожиданно сменяются превосходно поставленными сценами, а диалоги смолкают, уступая место красноречивому молчанию.

Исходник: 1080p BD-Remux c HDCLUB
В русских субтитрах исходника было немало ошибок, как орфографических, так и ошибок пунктуации. Пришлось их слегка подредактировать.
В английских субтитрах наблюдался прогрессирующий рассинхрон: от 0 сек в начале фильма до ~ 6 сек. в конце. Рассинхрон устранен.
Сэмпл
Качество видео: BDRip-AVC
Формат видео: MKV
Видео: 768x576 (4:3), 24 fps, AVC (H.264) ~1604 kbps avg, 0.151 bit/pixel
Аудио: Russian: AC3, 48 kHz, 16 bits, 192.00 kbps, 2ch |AVO, Р.Янкелевич|
Аудио 2: French: AC3, 48 kHz, 16 bits, 192.00 kbps, 1ch
Формат субтитров: softsub (SRT)
Навигация по главам: есть
Общее
Уникальный идентификатор : 203830122565748501600448775401274591093 (0x995840EFF9F68DF68B9722A37E67C775)
Полное имя : E:\Video\Razzia.sur.la.Chnouf.1955.BDRip-AVC.by.kvvk_2009.mkv
Формат : Matroska
Версия формата : Version 2
Размер файла : 1,46 Гбайт
Продолжительность : 1 ч. 44 м.
Общий поток : 1990 Кбит/сек
Дата кодирования : UTC 2012-03-20 01:51:23
Программа кодирования : mkvmerge v2.9.8 ('C'est le bon') built on Aug 13 2009 12:49:06
Библиотека кодирования : libebml v0.7.7 + libmatroska v0.8.1
Видео
Идентификатор : 1
Формат : AVC
Формат/Информация : Advanced Video Codec
Профиль формата : High@L4.1
Параметр CABAC формата : Да
Параметр ReFrames формата : 9 кадров
Идентификатор кодека : V_MPEG4/ISO/AVC
Продолжительность : 1 ч. 44 м.
Битрейт : 1604 Кбит/сек
Ширина : 768 пикселей
Высота : 576 пикселей
Соотношение сторон : 4:3
Частота кадров : 24,000 кадра/сек
Цветовое пространство : YUV
Субдискретизация насыщенности : 4:2:0
Битовая глубина : 8 бит
Тип развёртки : Прогрессивная
Бит/(Пиксели*Кадры) : 0.151
Размер потока : 1,15 Гбайт (79%)
Библиотека кодирования : x264 core 120 r2164 da19765
Настройки программы : cabac=1 / ref=9 / deblock=1:-2:-1 / analyse=0x3:0x113 / me=umh / subme=9 / psy=1 / psy_rd=1.00:0.10 / mixed_ref=1 / me_range=32 / chroma_me=1 / trellis=2 / 8x8dct=1 / cqm=0 / deadzone=21,11 / fast_pskip=0 / chroma_qp_offset=-3 / threads=3 / sliced_threads=0 / nr=0 / decimate=0 / interlaced=0 / bluray_compat=0 / constrained_intra=0 / bframes=9 / b_pyramid=2 / b_adapt=2 / b_bias=0 / direct=3 / weightb=1 / open_gop=0 / weightp=2 / keyint=230 / keyint_min=23 / scenecut=40 / intra_refresh=0 / rc_lookahead=50 / rc=2pass / mbtree=1 / bitrate=1604 / ratetol=1.0 / qcomp=0.60 / qpmin=0 / qpmax=51 / qpstep=4 / cplxblur=20.0 / qblur=0.5 / ip_ratio=1.40 / aq=1:1.00
Язык : English
Default : Нет
Forced : Нет
Аудио #1
Идентификатор : 2
Формат : AC-3
Формат/Информация : Audio Coding 3
Расширение режима : CM (complete main)
Идентификатор кодека : A_AC3
Продолжительность : 1 ч. 44 м.
Вид битрейта : Постоянный
Битрейт : 192 Кбит/сек
Каналы : 2 канала
Расположение каналов : Front: L R
Частота : 48,0 КГц
Битовая глубина : 16 бит
Метод сжатия : С потерями
Размер потока : 144 Мбайт (10%)
Заголовок : AC3 2ch @ 192 kbps |AVO Р.Янкелевич|
Язык : Russian
Default : Да
Forced : Нет
Аудио #2
Идентификатор : 3
Формат : AC-3
Формат/Информация : Audio Coding 3
Расширение режима : CM (complete main)
Идентификатор кодека : A_AC3
Продолжительность : 1 ч. 44 м.
Вид битрейта : Постоянный
Битрейт : 192 Кбит/сек
Каналы : 1 канал
Расположение каналов : Front: C
Частота : 48,0 КГц
Битовая глубина : 16 бит
Метод сжатия : С потерями
Размер потока : 144 Мбайт (10%)
Заголовок : AC3 1ch @ 192 kbps
Язык : French
Default : Нет
Forced : Нет
Текст #1
Идентификатор : 4
Формат : UTF-8
Идентификатор кодека : S_TEXT/UTF8
Идентификатор кодека/Информация : UTF-8 Plain Text
Язык : Russian
Default : Нет
Forced : Нет
Текст #2
Идентификатор : 5
Формат : UTF-8
Идентификатор кодека : S_TEXT/UTF8
Идентификатор кодека/Информация : UTF-8 Plain Text
Язык : English
Default : Нет
Forced : Нет
Текст #3
Идентификатор : 6
Формат : UTF-8
Идентификатор кодека : S_TEXT/UTF8
Идентификатор кодека/Информация : UTF-8 Plain Text
Язык : French
Default : Нет
Forced : Нет
Меню
00:00:00.000: :00:00:00.000
00:09:52.041: :00:09:52.041
00:15:23.250: :00:15:23.250
00:27:07.875: :00:27:07.875
00:38:43.375: :00:38:43.375
00:45:48.916: :00:45:48.916
00:58:13.166: :00:58:13.166
01:05:23.333: :01:05:23.333
01:13:31.833: :01:13:31.833
01:24:52.916: :01:24:52.916
01:31:38.666: :01:31:38.666
01:41:17.708: :01:41:17.708



Скачать Облава.на.блатных.Облава.на.торговцев.наркотиками.Razzia.sur.la.Chnouf.(Анри.Декуэн).[1955.триллер.драма.криминал.BDRip-AVC].[AVO].(Р.Янкелевич).torrent без регистрации
Золото ЗОЛОТАЯ РАЗДАЧА! СКАЧАННОЕ НЕ ЗАСЧИТЫВАЕТСЯ! Золото
Дата: Зарегистрирован   [ Тип: внутренний ] Как тут cкачать?
MAGNET ссылка
MAGNET ссылка


Скачать .torrent

15 KB

Статус: проверено DHT
Скачан: торрент - 150 раз, раздача полностью - 14 раз
Размер: 1,46 GB
Оценка:  - (Голосов: 0)
Поблагодарили: 1
Поделиться ссылкой на эту раздачу с друзьями:
В контактеFacebookОдноклассникиTwitterLivejournalМой МирLiveinternet
 

 
Показать сообщения:    


Вы не можете начинать темы
Вы не можете отвечать на сообщения
Вы не можете редактировать свои сообщения
Вы не можете удалять свои сообщения
Вы не можете голосовать в опросах
Вы не можете прикреплять файлы к сообщениям
Вы можете скачивать файлы