Loading...
Error

Скачать Корсар / Il corsaro / Le corsaire des sept mers (Антонио Моллика) [1970, приключения, DVDRip] [Sub Rus] торрент без регистрации

 
Статистика раздачи
Размер:  1,37 GB   |    Скачан:  150 раз
Сидов:  1  [  0 KB/s  ]  
 
Автор Сообщение

leon030982

[] 

Корсар / Il corsaro / Le corsaire des sept mers
Страна: Италия, Испания
Жанр: приключения
Год выпуска: 1970
Продолжительность: 01:23:40
Перевод: Субтитры (перевод Ketsalk)
Cубтитры: русские
Оригинальная аудиодорожка: итальянский
Режиссер: Антонио Моллика
В ролях: Роберт Вудс, Таня Альварадо, Армандо Кальво, Крис Уэрта, Мигель дель Кастильо, Анхель дель Посо, Ана Мария Мендоса, Хуан Амиго, Марина Бренгола, Тито Гарсия, Паскуале Нигро, Анна Циннеман, Фернандо Каро

Описание: Английский пират проигрывает свой корабль в кости, его арестовывают и отправляют в трюме корабля на заселение французской колонии, вместе с другими заключенными - пиратами, разбойниками, ворами и шлюхами. В открытом море он поднимает мятеж, захватывает корабль и становится его капитаном. Победив в битве испанский военный корабль, он ввязывается в опасную игру, на кону которой стоит много золота и свобода английской колонии от испанского господства. (Ketsalk)

Качество видео: DVDRip
Формат видео: AVI
Видео: Xvid 720x544 25.00fps 1947kbps
Аудио: Dolby AC3 48000Hz stereo 192kbps
Формат субтитров: softsub (SRT)
Format : AVI
Format/Info : Audio Video Interleave
File size : 1.37 GiB
Duration : 1h 23mn
Overall bit rate : 2 341 Kbps
Writing application : VirtualDubMod 1.5.4.1 (build 2178/release)
Writing library : VirtualDubMod build 2178/release
Video
ID : 0
Format : MPEG-4 Visual
Format profile : Advanced Simple@L5
Format settings, BVOP : Yes
Format settings, QPel : No
Format settings, GMC : No warppoints
Format settings, Matrix : Custom
Codec ID : XVID
Codec ID/Hint : XviD
Duration : 1h 23mn
Bit rate : 1 948 Kbps
Width : 720 pixels
Height : 544 pixels
Display aspect ratio : 4:3
Frame rate : 25.000 fps
Resolution : 8 bits
Colorimetry : 4:2:0
Scan type : Progressive
Bits/(Pixel*Frame) : 0.199
Stream size : 1.14 GiB (83%)
Writing library : XviD 1.2.1 (UTC 2008-12-04)
Audio #1
ID : 1
Format : AC-3
Format/Info : Audio Coding 3
Codec ID : 2000
Duration : 1h 23mn
Bit rate mode : Constant
Bit rate : 192 Kbps
Channel(s) : 2 channels
Channel positions : L R
Sampling rate : 48.0 KHz
Stream size : 115 MiB (8%)
Alignment : Aligned on interleaves
Interleave, duration : 96 ms (2.40 video frames)
Interleave, preload duration : 96 ms
Audio #2
ID : 2
Format : AC-3
Format/Info : Audio Coding 3
Codec ID : 2000
Duration : 1h 23mn
Bit rate mode : Constant
Bit rate : 192 Kbps
Channel(s) : 2 channels
Channel positions : L R
Sampling rate : 48.0 KHz
Stream size : 115 MiB (8%)
Alignment : Aligned on interleaves
Interleave, duration : 96 ms (2.40 video frames)
Interleave, preload duration : 96 ms
21
00:03:30,480 --> 00:03:32,311
Эй, уже уходишь?
22
00:03:32,920 --> 00:03:35,115
Нет. Мне просто нужно
повидаться с другом.
23
00:03:35,360 --> 00:03:36,236
Скоро вернусь.
24
00:03:36,440 --> 00:03:39,034
Последний раз ты говорил мне это
25
00:03:39,240 --> 00:03:40,559
год назад.
26
00:03:40,760 --> 00:03:42,557
И вернулся без гроша.
27
00:03:42,760 --> 00:03:45,718
Даже проиграл в кости свой корабль.
28
00:03:45,960 --> 00:03:48,428
Я-то уж тебя прекрасно знаю, пират!
29
00:03:48,680 --> 00:03:50,511
На этот раз я вернусь.
30
00:03:51,600 --> 00:03:53,477
Клянусь тебе, Даниэлла.
31
00:03:54,560 --> 00:03:55,993
Ты мне веришь?
32
00:03:58,320 --> 00:03:59,389
Скажи мне скорее...
33
00:04:00,000 --> 00:04:03,117
- Ты меня любишь, Джеффри?
- Кто? Я?
34
00:04:05,280 --> 00:04:07,111
Я тебя просто обожаю, сладкая!
35
00:04:08,920 --> 00:04:11,070
Для меня ты единственная
женщина на свете.
36
00:04:16,800 --> 00:04:20,713
Это правда, прошел год... Но
если бы ты знала, как я страдал!
37
00:04:20,960 --> 00:04:24,714
Море, небо, море, небо... Я никогда
не переставал думать о тебе.
38
00:04:24,920 --> 00:04:26,558
Ну, пока!
39
00:04:36,880 --> 00:04:38,359
Привет, Мигель!
40
00:04:39,120 --> 00:04:41,918
Я знал, что ты не
уплывешь без меня.



Скачать Корсар.Il.corsaro.Le.corsaire.des.sept.mers.(Антонио.Моллика).[1970.приключения.DVDRip].[Sub.Rus].torrent без регистрации
Золото ЗОЛОТАЯ РАЗДАЧА! СКАЧАННОЕ НЕ ЗАСЧИТЫВАЕТСЯ! Золото
Дата: Зарегистрирован   [ Тип: внутренний ] Как тут cкачать?
MAGNET ссылка
MAGNET ссылка


Скачать .torrent

14 KB

Статус: проверено DHT
Скачан: торрент - 150 раз, раздача полностью - 11 раз
Размер: 1,37 GB
Оценка:  - (Голосов: 0)
Поблагодарили: 1
Поделиться ссылкой на эту раздачу с друзьями:
В контактеFacebookОдноклассникиTwitterLivejournalМой МирLiveinternet
 

 
Показать сообщения:    


Вы не можете начинать темы
Вы не можете отвечать на сообщения
Вы не можете редактировать свои сообщения
Вы не можете удалять свои сообщения
Вы не можете голосовать в опросах
Вы не можете прикреплять файлы к сообщениям
Вы можете скачивать файлы