Loading...
Error

Скачать Отель / Hotel (Ричард Квин) [1967, драма, DVDRip-AVC] [MVO] торрент без регистрации

 
Статистика раздачи
Размер:  2,19 GB   |    Скачан:  153 раза

Полного источника не было: 24 дня

 
Автор Сообщение

leon030982

[] 

Отель / Hotel
Страна: США
Жанр: драма
Год выпуска: 1967
Продолжительность: 02:04:52
Перевод: Профессиональный (многоголосый закадровый)
Cубтитры: нет
Оригинальная аудиодорожка: английский
Режиссер: Ричард Квин
Сценарий: Артур Хейли, Уэнделл Мейс
В ролях: Род Тейлор, Катрин Спаак, Карл Молден, Мелвин Дуглас, Мерл Оберон, Ричард Конте/ Майкл Ренни, Кевин МакКарти, Кармен Мак Рей, Альфред Райдер, Рой Робертс, Аль Кекко, Шила Бромли, Гарри Хикокс, Уильям Ланто, Кен Линч, Клинтон Сандберг, Тол Эйвери

Описание: Экранизация одноименного романа А.Хейли
В отеле "Святой Георгий" Нового Орлеана пересеклись судьбы разных людей. Здесь и крупный бизнесмен с молодой и красивой подругой, чета герцогов, гостиничный вор, частный детектив, хозяин отеля. Но главный герой, менеджер отеля – Питер Макдермотт. У каждого из персонажей – своя история, которая входит в общий водоворот событий. Судьба самого отеля тоже под вопросом. События достигают кульминации и развязки…


Исходник: DVD9, спасибо palmeiras
Качество видео: DVDRip-AVC | sample
Формат видео: MKV
Видео кодек: x264
Видео: AVC 716x480@849x480 (16:9), 23.976 fps, ~2120 Kbps, 0.26 bit/pixel
Аудио #1: Russian AC3 2ch 48kHz 192Kbps | MVO
Аудио #2: English AC3 2ch 48kHz 192Kbps | Original
Формат субтитров: softsub (SRT)
Главы: есть
--[NoImage] raw [info]: 716x480p 19800:16289 @ 24000/1001 fps (cfr)
--[NoImage] x264 [info]: using SAR=19800/16289
--[NoImage] x264 [info]: using cpu capabilities: MMX2 SSE2
--[NoImage] x264 [info]: profile High, level 4.1
--[NoImage] x264 [info]: cabac=1 ref=14 deblock=1:-3:-2 analyse=0x3:0x133 me=umh subme=11 psy=1 fade_compensate=0.90 psy_rd=1.10:0.05 mixed_ref=1 me_range=48 chroma_me=1 trellis=2 8x8dct=1 cqm=0 deadzone=21,11 fast_pskip=0 chroma_qp_offset=-3 threads=6 sliced_threads=0 nr=0 decimate=0 interlaced=0 bluray_compat=0 constrained_intra=0 bframes=12 b_pyramid=2 b_adapt=2 b_bias=0 direct=3 weightb=1 open_gop=0 weightp=2 keyint=240 keyint_min=23 scenecut=40 intra_refresh=0 rc_lookahead=120 rc=2pass mbtree=1 bitrate=2120 ratetol=1.0 qcomp=0.70 qpmin=0 qpmax=69 qpstep=4 cplxblur=20.0 qblur=0.5 vbv_maxrate=17500 vbv_bufsize=14000 nal_hrd=none ip_ratio=1.35 aq=3:0.90
--[NoImage] x264 [info]: started at Mon Mar 12 16:20:30 2012
--[NoImage]
--[NoImage] x264 [info]: frame I:1030 Avg QP:18.40 size: 43694
--[NoImage] x264 [info]: frame P:33315 Avg QP:19.31 size: 23050
--[NoImage] x264 [info]: frame B:145275 Avg QP:21.26 size: 8070
--[NoImage] x264 [info]: consecutive B-frames: 0.8% 0.7% 4.6% 11.7% 17.3% 44.2% 12.0% 3.2% 2.9% 0.9% 0.6% 0.8% 0.1%
--[NoImage] x264 [info]: mb I I16..4: 1.8% 91.8% 6.4%
--[NoImage] x264 [info]: mb P I16..4: 0.2% 21.5% 0.6% P16..4: 27.9% 34.4% 11.3% 3.5% 0.2% skip: 0.3%
--[NoImage] x264 [info]: mb B I16..4: 0.0% 5.2% 0.0% B16..8: 38.7% 21.0% 3.4% direct: 8.9% skip:22.7% L0:41.6% L1:37.9% BI:20.5%
--[NoImage] x264 [info]: 8x8 transform intra:97.1% inter:64.9%
--[NoImage] x264 [info]: direct mvs spatial:99.5% temporal:0.5%
--[NoImage] x264 [info]: coded y,uvDC,uvAC intra: 97.4% 80.7% 40.1% inter: 37.0% 36.8% 7.9%
--[NoImage] x264 [info]: i16 v,h,dc,p: 42% 8% 6% 44%
--[NoImage] x264 [info]: i8 v,h,dc,ddl,ddr,vr,hd,vl,hu: 16% 9% 26% 7% 8% 8% 7% 9% 10%
--[NoImage] x264 [info]: i4 v,h,dc,ddl,ddr,vr,hd,vl,hu: 15% 7% 2% 9% 15% 17% 13% 12% 10%
--[NoImage] x264 [info]: i8c dc,h,v,p: 36% 25% 26% 13%
--[NoImage] x264 [info]: Weighted P-Frames: Y:7.2% UV:1.8%
--[NoImage] x264 [info]: ref P L0: 38.0% 10.6% 16.9% 8.3% 6.2% 4.9% 4.1% 2.4% 2.1% 1.8% 1.5% 1.3% 1.1% 0.8% 0.1% 0.0%
--[NoImage] x264 [info]: ref B L0: 70.3% 14.0% 5.4% 2.8% 2.0% 1.6% 1.3% 0.7% 0.6% 0.5% 0.4% 0.2% 0.1%
--[NoImage] x264 [info]: ref B L1: 92.9% 7.1%
--[NoImage] x264 [info]: kb/s:2120.01
--[NoImage] encoded 179620 frames, 5.96 fps, 2120.01 kb/s
General
Complete name : E:\...\Hotel.1967.NTSC.DVDRip.x264.AC3.Rus.Eng-E76.mkv
Format : Matroska
Format version : Version 2
File size : 2.19 GiB
Duration : 2h 4mn
Overall bit rate : 2 506 Kbps
Movie name : Hotel.1967.NTSC.DVDRip.x264.AC3.Rus.Eng-E76
Encoded date : UTC 2012-03-20 07:08:02
Writing application : mkvmerge v5.2.1 ('A Far Off Place') built on Jan 2 2012 23:21:10
Writing library : libebml v1.2.3 + libmatroska v1.3.0
Video
ID : 1
Format : AVC
Format/Info : Advanced Video Codec
Format profile : High@L4.1
Format settings, CABAC : Yes
Format settings, ReFrames : 14 frames
Codec ID : V_MPEG4/ISO/AVC
Duration : 2h 4mn
Bit rate : 2 120 Kbps
Width : 716 pixels
Height : 480 pixels
Display aspect ratio : 16:9
Original display aspect ratio : 16:9
Frame rate : 23.976 fps
Color space : YUV
Chroma subsampling : 4:2:0
Bit depth : 8 bits
Scan type : Progressive
Bits/(Pixel*Frame) : 0.257
Stream size : 1.81 GiB (83%)
Title : Encode by Enclave76 for rutracker.org
Writing library : x264 core 120 r2146kMod bcd41db
Encoding settings : cabac=1 / ref=14 / deblock=1:-3:-2 / analyse=0x3:0x133 / me=umh / subme=11 / psy=1 / fade_compensate=0.90 / psy_rd=1.10:0.05 / mixed_ref=1 / me_range=48 / chroma_me=1 / trellis=2 / 8x8dct=1 / cqm=0 / deadzone=21,11 / fast_pskip=0 / chroma_qp_offset=-3 / threads=6 / sliced_threads=0 / nr=0 / decimate=0 / interlaced=0 / bluray_compat=0 / constrained_intra=0 / bframes=12 / b_pyramid=2 / b_adapt=2 / b_bias=0 / direct=3 / weightb=1 / open_gop=0 / weightp=2 / keyint=240 / keyint_min=23 / scenecut=40 / intra_refresh=0 / rc_lookahead=120 / rc=2pass / mbtree=1 / bitrate=2120 / ratetol=1.0 / qcomp=0.70 / qpmin=0 / qpmax=69 / qpstep=4 / cplxblur=20.0 / qblur=0.5 / vbv_maxrate=17500 / vbv_bufsize=14000 / nal_hrd=none / ip_ratio=1.35 / aq=3:0.90
Language : English
Matrix coefficients : BT.470-6 System B, BT.470-6 System G, BT.601-6 625, BT.1358 625, BT.1700 625 PAL, BT.1700 625 SECAM, IEC 61966-2-4 601
Audio #1
ID : 2
Format : AC-3
Format/Info : Audio Coding 3
Mode extension : CM (complete main)
Codec ID : A_AC3
Duration : 2h 4mn
Bit rate mode : Constant
Bit rate : 192 Kbps
Channel(s) : 2 channels
Channel positions : Front: L R
Sampling rate : 48.0 KHz
Bit depth : 16 bits
Compression mode : Lossy
Stream size : 171 MiB (8%)
Title : MVO
Language : Russian
Audio #2
ID : 3
Format : AC-3
Format/Info : Audio Coding 3
Mode extension : CM (complete main)
Codec ID : A_AC3
Duration : 2h 4mn
Bit rate mode : Constant
Bit rate : 192 Kbps
Channel(s) : 2 channels
Channel positions : Front: L R
Sampling rate : 48.0 KHz
Bit depth : 16 bits
Compression mode : Lossy
Stream size : 171 MiB (8%)
Title : Original
Language : English
Menu
00:00:00.000 : en:Chapter 01
00:10:00.000 : en:Chapter 02
...
02:00:00.100 : en:Chapter 14



Скачать Отель.Hotel.(Ричард.Квин).[1967.драма.DVDRip-AVC].[MVO].torrent без регистрации
Золото ЗОЛОТАЯ РАЗДАЧА! СКАЧАННОЕ НЕ ЗАСЧИТЫВАЕТСЯ! Золото
Дата: Зарегистрирован   [ Тип: внутренний ] Как тут cкачать?
MAGNET ссылка
MAGNET ссылка


Скачать .torrent

11 KB

Статус: проверено
Скачан: торрент - 153 раз, раздача полностью - 25 раз
Размер: 2,19 GB
Оценка:  - (Голосов: 0)
Поблагодарили: 2
Поделиться ссылкой на эту раздачу с друзьями:
В контактеFacebookОдноклассникиTwitterLivejournalМой МирLiveinternet
 

 
Показать сообщения:    


Вы не можете начинать темы
Вы не можете отвечать на сообщения
Вы не можете редактировать свои сообщения
Вы не можете удалять свои сообщения
Вы не можете голосовать в опросах
Вы не можете прикреплять файлы к сообщениям
Вы можете скачивать файлы