Loading...
Error

Скачать В пасти безумия / In the Mouth of Madness (Джон Карпентер) [1995, Мистика,Триллер, DVDRip] [MVO] торрент без регистрации

 
Статистика раздачи
Размер:  1,44 GB   |    Скачан:  130 раз
Сидов:  1  [  0 KB/s  ]  
 
Автор Сообщение

leon030982

[] 

В пасти безумия / In the Mouth of Madness
«Reality isn't what it used to be...»
Страна: США
Жанр: Мистика,Триллер
Год выпуска: 1995
Продолжительность: 01:31:27
Перевод: Профессиональный (многоголосый закадровый)
Cубтитры: нет
Режиссер: Джон Карпентер
В ролях:
Сэм Нилл
, Джули Кармен, Юрген Прохнов, Дэвид Уорнер, Джон Гловер, Берни Кэйси, Питер Джейсон, Чарлтон Хестон, Фрэнсис Бэй, Вильгельм фон Хомбург
Описание:
Произведения Саттера Кэйна побили все рекорды популярности - Стивену Кингу такое не снилось. Эффект, производимый на некоторых почитателей таланта Кэйна, - полная дезориентация и потеря памяти, массовые вспышки насилия, шизофреники, переполнившие клиники. Сам же автор романов ужасов, приносящих бешеный доход издательствам, исчез уже два месяца тому назад. Для его поисков издательство нанимает страхового агента Джона Трэйта (Нилл), который, конечно же, и понятия не имеет о Кэйне и его книгах, да так оно, как выяснилось, было и к лучшему. Похоже, если люди и дальше будет увлекаться подобным чтивом, предсказания Кэйна сбудутся: "Через 10 лет человечество станет лишь темой для сказок".
SAMPLE

Качество видео:
Формат видео: AVI
Видео: Xvid, 688x288, 2.40:1, 25fps, 1 799kbps, 0.36bit/pixel
Аудио: 48 kHz, AC3 Dolby Digital,3/2 (L,C,R,l,r) + LFE ch, ~448 kbps
General
Complete name : E:\My torrents\In the Mouth of Madness.avi
Format : AVI
Format/Info : Audio Video Interleave
File size : 1.44 GiB
Duration : 1h 31mn
Overall bit rate : 2 256 Kbps
Writing application : VirtualDubMod 1.5.10.3 | www.virtualdub-fr.org || (build 2550/release)
Writing library : VirtualDubMod build 2550/release
Video
ID : 0
Format : MPEG-4 Visual
Format profile : Advanced Simple@L5
Format settings, BVOP : 2
Format settings, QPel : No
Format settings, GMC : No warppoints
Format settings, Matrix : Custom
Codec ID : XVID
Codec ID/Hint : XviD
Duration : 1h 31mn
Bit rate : 1 799 Kbps
Width : 688 pixels
Height : 288 pixels
Display aspect ratio : 2.40:1
Frame rate : 25.000 fps
Color space : YUV
Chroma subsampling : 4:2:0
Bit depth : 8 bits
Scan type : Progressive
Compression mode : Lossy
Bits/(Pixel*Frame) : 0.363
Stream size : 1.15 GiB (80%)
Writing library : XviD 64
Audio
ID : 1
Format : AC-3
Format/Info : Audio Coding 3
Mode extension : CM (complete main)
Codec ID : 2000
Duration : 1h 31mn
Bit rate mode : Constant
Bit rate : 448 Kbps
Channel(s) : 6 channels
Channel positions : Front: L C R, Side: L R, LFE
Sampling rate : 48.0 KHz
Bit depth : 16 bits
Compression mode : Lossy
Stream size : 293 MiB (20%)
Alignment : Split accross interleaves
Interleave, duration : 40 ms (1.00 video frame)
Interleave, preload duration : 500 ms



Скачать В.пасти.безумия.In.the.Mouth.of.Madness.(Джон.Карпентер).[1995.Мистика.Триллер.DVDRip].[MVO].torrent без регистрации
Золото ЗОЛОТАЯ РАЗДАЧА! СКАЧАННОЕ НЕ ЗАСЧИТЫВАЕТСЯ! Золото
Дата: Зарегистрирован   [ Тип: внутренний ] Как тут cкачать?
MAGNET ссылка
MAGNET ссылка


Скачать .torrent

15 KB

Статус: проверено DHT
Скачан: торрент - 130 раз, раздача полностью - 6 раз
Размер: 1,44 GB
Оценка:  - (Голосов: 0)
Поблагодарили: 1
Поделиться ссылкой на эту раздачу с друзьями:
В контактеFacebookОдноклассникиTwitterLivejournalМой МирLiveinternet
 

 
Показать сообщения:    


Вы не можете начинать темы
Вы не можете отвечать на сообщения
Вы не можете редактировать свои сообщения
Вы не можете удалять свои сообщения
Вы не можете голосовать в опросах
Вы не можете прикреплять файлы к сообщениям
Вы можете скачивать файлы