Loading...
Error

Скачать Мир без конца / World Without End (Эдвард Берндс) [1956, фантастика, мелодрама, приключения, DVDRip] [VO] торрент без регистрации

 
Статистика раздачи
Размер:  1,46 GB   |    Скачан:  135 раз
Сидов:  1  [  0 KB/s  ]  
 
Автор Сообщение

leon030982

[] 

Мир без конца / World Without End

«CinemaScope's First Science-Fiction Thriller Hurls You into the Year 2508!»
Страна: США
Жанр: фантастика, мелодрама, приключения
Год выпуска: 1956
Продолжительность: 01:20:41
Перевод: Одноголосый закадровый [Rollinghead]
Cубтитры: нет
Режиссер: Эдвард Берндс
В ролях: Хью Марлоу, Нэнси Гейтс, Нельсон Ли, Род Тейлор, Ширли Паттерсон, Лиза Монтелл, Кристофер Дарк, Бут Колман, Эверетт Гласс, Стэнли Фрайзер
Описание: 2200 год. Четыре космонавта командир Джон Борден, Херберт Эллис, доктор Элдоном Галбрайт и Генри Джаффе, возвращающихся из первой миссии человечества на Марс. Ракета RXM становится жертвой случайного ускорения, и на скорости свыше 100 миль в секунду проваливается сквозь искривлённое пространство в будущее и приземляется в цепи заснеженных гор на планете, чья атмосфера идентична Земле. Позже космонавты выясняют, что они оказались в 26 веке на Земле, опустошенной атомной войной. Наши герои встретятся с отвратительный мутантами, гигантскими пауками, красавицами в коротких платьях, и ревнителями старой веры — которые борются, чтобы сохранить человечество и построить новый мир.

Качество видео: DVDRip [исходник DVD9 R1]
Формат видео: AVI
Видео: Xvid, 720x304, 23,89 fps, 2388 kbps, 0.45 bit/pixel
Аудио: MPEG Audio Layer 3, 48 kHz, 192 kbps, 2/0 (L,R) ch
General
Complete name : World.Without.End.1956.DVDRip.Xvid-Zombie.Lee.avi
Format : AVI
Format/Info : Audio Video Interleave
File size : 1.46 GiB
Duration : 1h 20mn
Overall bit rate : 2 590 Kbps
Writing library : VirtualDub build 33790/release
Video
ID : 0
Format : MPEG-4 Visual
Format profile : Advanced Simple@L5
Format settings, BVOP : No
Format settings, QPel : No
Format settings, GMC : No warppoints
Format settings, Matrix : Custom
Codec ID : XVID
Codec ID/Hint : XviD
Duration : 1h 20mn
Bit rate : 2 389 Kbps
Width : 720 pixels
Height : 304 pixels
Display aspect ratio : 2.35:1
Frame rate : 23.976 fps
Color space : YUV
Chroma subsampling : 4:2:0
Bit depth : 8 bits
Scan type : Progressive
Compression mode : Lossy
Bits/(Pixel*Frame) : 0.455
Stream size : 1.35 GiB (92%)
Writing library : XviD 1.2.1 (UTC 2008-12-04)
Audio
ID : 1
Format : MPEG Audio
Codec ID : 55
Codec ID/Hint : MP3
Duration : 1h 20mn
Bit rate : 192 Kbps
Channel(s) : 2 channels
Sampling rate : 48.0 KHz
Compression mode : Lossy
Stream size : 111 MiB (7%)
Alignment : Split accross interleaves
Interleave, duration : 42 ms (1.00 video frame)
Interleave, preload duration : 500 ms



Скачать Мир.без.конца.World.Without.End.(Эдвард.Берндс).[1956.фантастика.мелодрама.приключения.DVDRip].[VO].torrent без регистрации
Золото ЗОЛОТАЯ РАЗДАЧА! СКАЧАННОЕ НЕ ЗАСЧИТЫВАЕТСЯ! Золото
Дата: Зарегистрирован   [ Тип: внутренний ] Как тут cкачать?
MAGNET ссылка
MAGNET ссылка


Скачать .torrent

15 KB

Статус: проверено DHT
Скачан: торрент - 135 раз, раздача полностью - 20 раз
Размер: 1,46 GB
Оценка:  - (Голосов: 0)
Поблагодарили: 1
Поделиться ссылкой на эту раздачу с друзьями:
В контактеFacebookОдноклассникиTwitterLivejournalМой МирLiveinternet
 

 
Показать сообщения:    


Вы не можете начинать темы
Вы не можете отвечать на сообщения
Вы не можете редактировать свои сообщения
Вы не можете удалять свои сообщения
Вы не можете голосовать в опросах
Вы не можете прикреплять файлы к сообщениям
Вы можете скачивать файлы