Loading...
Error

Скачать Месье Верду / Monsieur Verdoux (Чарлз Чаплин) [1947 г., комедия, трагикомедия, драма, DVDRip-AVC] [MVO] + [AVO] (Толбин) торрент без регистрации

 
Статистика раздачи
Размер:  1,83 GB   |    Скачан:  132 раза

Полного источника не было: 1 год 2 месяца

 
Автор Сообщение

leon030982

[] 

Месье Верду / Monsieur Verdoux
A Comedy of Murders / Комедия убийств
Год выпуска: 1947
Страна / Производство: США / Charles Chaplin Productions
Жанр: комедия, трагикомедия, драма
Продолжительность: 01:59:02
Переводы:
1) Профессиональный (многоголосый, закадровый)
2) Авторский (одноголосый) - Толбин
3) Субтитры
Субтитры: русские, английские, французские, немецкие, испанские, итальянские
Режиссер: Чарлз Чаплин / Charles Chaplin
Сценарий: Орсон Уэллс (Orson Welles), Чарлз Чаплин (Charles Chaplin)

В ролях: Чарлз Чаплин (Charles Chaplin), Мэди Коррелл (Mady Correll), Эллисон Роддан (Allison Roddan), Роберт Льюис (Robert Lewis), Одри Бетц (Audrey Betz), Марта Рэй (Martha Raye), Ада Мэй (Ada May), Изобел Элсом (Isobel Elsom), Марджори Беннетт (Marjorie Bennett), Хэлена Хей (Helene Heigh), Маргарет Хоффман (Margaret Hoffman), Мэрлин Нэш (Marilyn Nash) и др.

Описание: На этот раз гениальный лицедей открывает неожиданные стороны своего комического дара. Его герой завоевывает сердца и банковские счета богатых вдовушек и старых дев, а затем убивает своих несчастных жертв.

"Знаменитый постановщик "Гражданина Кейна", в то время уже отстраненный от голливудских дел, сделал для Чаплина набросок сценария. Но Чаплин по своему обыкновению немало потрудился над первоначальным наброском и приступил к работе над фильмом лишь в апреле 1946 года уже со своим собственным сценарием". (цит. по Ж. Садуль. Чарли Чаплин. М., 1981 г., стр. 118. )
В 1948 году парижский банковский клерк по фамилии Верду подал в суд на продюсеров фильма.
Изначально фильм должен был снимать Орсон Уэллс, а играть в нем Чаплин, но последний заявил, что никогда еще не снимался в фильмах, которые ставил кто-то другой и начинать не собирается. После чего, выкупил сценарий у Орсона Уэллса и, немного его переписав, заявил в титрах, что сценарий его, а Уэллс всего лишь автор идеи. На что Уэллс сказал, мол, несмотря на то, что сценарий большей частью остался его, он не возражает, ибо все равно это его самый неудачный сценарий.
Несмотря на превосходные отзывы критиков и даже номинацию на «Оскар» за лучший сценарий, фильм с треском провалился в американском прокате из-за имевшихся в нем элементов «богохульства» и политической сатиры, а также политических убеждений Чаплина вообще, неугодных тогдашнему правительству США: в год выхода, те кинотеатры, где его все же решились показать, пикетировались Американским легионом и Католическими ветеранами войны, а проправительственные газеты развязали настоящую травлю режиссера.
Луис Бунюэль считал этот фильм одним из двух лучших фильмов Чаплина. (Второй — «Золотая лихорадка»).(c) kinopoisk
Настоятельно рекомендую смотреть Чаплина только в оригинале с субтитрами. - Русские звуковые дорожки собраны только для того, чтобы рип был исчерпывающим, коллекционным.
Качество: DVDRip-AVC (DVD9 от mk2)
Формат: MKV
Видео кодек: AVC (x264)
Аудио кодек: MP3, AC3
Видео: 720х554 (AR 1.386 @ 768x554), PAL, 25 fps, 1680 kbps, 0.164 b/p
Аудио #1: Русский многоголосый; MP3: 128 kbps, cbr, 48 khz, 16 bit, 2 ch
Аудио #2: English original; AC3: 192 kbps, cbr, 48 khz, 16 bit, 2 ch
Аудио #3: Русский одноголосый (Толбин); MP3: 192 kbps, cbr, 44.1 khz, 16 bit, 2 ch
Субтитры №1: Русские; UTF-8
Субтитры №2: English (simple); UTF-8
Субтитры №3: English (for hearing-impaired); UTF-8
Субтитры №4: Français; UTF-8
Прочие субтитры: Deutsch, Español, Italiano; UTF-8
Standard error stream
avs [info]: 720x554 @ 25.00 fps (178550 frames)
x264 [info]: using SAR=16/15
x264 [info]: using cpu capabilities: MMX2 SSE2Fast SSSE3 Cache64
x264 [info]: profile High, level 3.1
x264 [info]: frame I:1013 Avg QP:16.77 size: 41828 PSNR Mean Y:47.35 U:100.00 V:100.00 Avg:49.11 Global:48.57
x264 [info]: frame P:44279 Avg QP:18.89 size: 16644 PSNR Mean Y:44.95 U:100.00 V:100.00 Avg:46.70 Global:45.89
x264 [info]: frame B:133258 Avg QP:21.02 size: 5406 PSNR Mean Y:43.65 U:100.00 V:100.00 Avg:45.41 Global:45.00
x264 [info]: consecutive B-frames: 1.5% 2.8% 7.0% 49.4% 24.9% 12.6% 1.8%
x264 [info]: mb I I16..4: 2.8% 87.9% 9.3%
x264 [info]: mb P I16..4: 0.6% 9.8% 0.8% P16..4: 45.8% 23.7% 15.8% 0.3% 0.2% skip: 3.0%
x264 [info]: mb B I16..4: 0.1% 0.9% 0.1% B16..8: 46.9% 2.4% 3.6% direct: 7.7% skip:38.4% L0:36.3% L1:50.1% BI:13.6%
x264 [info]: 8x8 transform intra:87.2% inter:65.9%
x264 [info]: direct mvs spatial:99.6% temporal:0.4%
x264 [info]: coded y,uvDC,uvAC intra: 92.9% 0.0% 0.0% inter: 30.5% 0.0% 0.0%
x264 [info]: i16 v,h,dc,p: 50% 13% 10% 27%
x264 [info]: i8 v,h,dc,ddl,ddr,vr,hd,vl,hu: 17% 12% 7% 7% 11% 12% 11% 11% 11%
x264 [info]: i4 v,h,dc,ddl,ddr,vr,hd,vl,hu: 18% 8% 3% 8% 14% 15% 13% 12% 11%
x264 [info]: Weighted P-Frames: Y:25.2%
x264 [info]: ref P L0: 43.9% 16.6% 17.2% 5.5% 4.8% 3.4% 2.9% 1.7% 1.5% 1.2% 1.0% 0.3% 0.0%
x264 [info]: ref B L0: 82.0% 9.4% 3.1% 1.6% 1.2% 0.9% 0.8% 0.5% 0.3% 0.2%
x264 [info]: ref B L1: 95.8% 4.2%
x264 [info]: SSIM Mean Y:0.9807113
x264 [info]: PSNR Mean Y:43.991 U:100.000 V:100.000 Avg:45.748 Global:45.219 kb/s:1679.87
encoded 178550 frames, 5.60 fps, 1679.87 kb/s

Format : Matroska
File size : 1.83 GiB
Duration : 1h 59mn
Overall bit rate : 2 195 Kbps
Encoded date : UTC 2010-01-19 13:22:13
Writing application : mkvmerge v3.0.0 ('Hang up your Hang-Ups') built on Dec 12 2009 15:20:35
Writing library : libebml v0.7.9 + libmatroska v0.8.1
Video
ID : 1
Format : AVC
Format/Info : Advanced Video Codec
Format profile : High@L3.1
Format settings, CABAC : Yes
Format settings, ReFrames : 11 frames
Muxing mode : Container profile=Unknown@3.1
Codec ID : V_MPEG4/ISO/AVC
Duration : 1h 59mn
Bit rate : 1 639 Kbps
Nominal bit rate : 1 680 Kbps
Width : 720 pixels
Height : 554 pixels
Display aspect ratio : 1.386
Frame rate : 25.000 fps
Resolution : 24 bits
Colorimetry : 4:2:0
Scan type : Progressive
Bits/(Pixel*Frame) : 0.164
Stream size : 1.36 GiB (75%)
Title : Monsieur Verdoux, 1947 (Charles Chaplin)
Writing library : x264 core 80 r1376bm 3feaec2
Encoding settings : cabac=1 / ref=11 / deblock=1:-2:-1 / analyse=0x3:0x133 / me=umh / subme=9 / psy=1 / psy_rd=1.0:0.1 / mixed_ref=1 / me_range=24 / chroma_me=0 / trellis=2 / 8x8dct=1 / cqm=0 / deadzone=21,11 / fast_pskip=0 / chroma_qp_offset=-3 / threads=3 / sliced_threads=0 / nr=0 / decimate=0 / mbaff=0 / constrained_intra=0 / bframes=6 / b_pyramid=2 / b_adapt=2 / b_bias=0 / direct=3 / wpredb=1 / wpredp=2 / keyint=250 / keyint_min=25 / scenecut=40 / rc=2pass / mbtree=0 / bitrate=1680 / ratetol=1.0 / qcomp=0.60 / qpmin=10 / qpmax=51 / qpstep=4 / cplxblur=20.0 / qblur=0.5 / ip_ratio=1.40 / pb_ratio=1.30 / aq=4:1.00
Language : English
Audio #1
ID : 2
Format : MPEG Audio
Format version : Version 1
Format profile : Layer 3
Format settings, Mode : Joint stereo / MS Stereo
Codec ID : A_MPEG/L3
Codec ID/Hint : MP3
Duration : 1h 59mn
Bit rate mode : Constant
Bit rate : 128 Kbps
Channel(s) : 2 channels
Sampling rate : 48.0 KHz
Resolution : 16 bits
Stream size : 109 MiB (6%)
Title : Russian MVO; mp3: 128kbps, cbr, 48khz, 2ch
Language : Russian
Audio #2
ID : 3
Format : AC-3
Format/Info : Audio Coding 3
Codec ID : A_AC3
Duration : 1h 59mn
Bit rate mode : Constant
Bit rate : 192 Kbps
Channel(s) : 2 channels
Channel positions : L R
Sampling rate : 48.0 KHz
Stream size : 163 MiB (9%)
Title : English original; AC3: 192kbps, cbr, 48khz, 2ch
Language : English
Audio #3
ID : 4
Format : MPEG Audio
Format version : Version 1
Format profile : Layer 3
Codec ID : A_MPEG/L3
Codec ID/Hint : MP3
Duration : 1h 59mn
Bit rate mode : Constant
Bit rate : 192 Kbps
Channel(s) : 2 channels
Sampling rate : 44.1 KHz
Resolution : 16 bits
Stream size : 163 MiB (9%)
Title : Russian VO; mp3: 192kbps, cbr, 44.1khz, 2ch
Language : Russian
Text #1
ID : 5
Format : UTF-8
Codec ID : S_TEXT/UTF8
Codec ID/Info : UTF-8 Plain Text
Title : Russian
Language : Russian
Text #2
ID : 6
Format : UTF-8
Codec ID : S_TEXT/UTF8
Codec ID/Info : UTF-8 Plain Text
Title : English (simple)
Language : English
Text #3
ID : 7
Format : UTF-8
Codec ID : S_TEXT/UTF8
Codec ID/Info : UTF-8 Plain Text
Title : English (for hearing-impaired)
Language : English
Text #4
ID : 8
Format : UTF-8
Codec ID : S_TEXT/UTF8
Codec ID/Info : UTF-8 Plain Text
Title : Francais
Language : French
Text #5
ID : 9
Format : UTF-8
Codec ID : S_TEXT/UTF8
Codec ID/Info : UTF-8 Plain Text
Title : Deutsch
Language : German
Text #6
ID : 10
Format : UTF-8
Codec ID : S_TEXT/UTF8
Codec ID/Info : UTF-8 Plain Text
Title : Deutsch (for hearing-impaired)
Language : German
Text #7
ID : 11
Format : UTF-8
Codec ID : S_TEXT/UTF8
Codec ID/Info : UTF-8 Plain Text
Title : Espanol
Language : Spanish
Text #8
ID : 12
Format : UTF-8
Codec ID : S_TEXT/UTF8
Codec ID/Info : UTF-8 Plain Text
Title : Italiano
Language : Italian



Скачать Месье.Верду.Monsieur.Verdoux.(Чарлз.Чаплин).[1947.г.комедия.трагикомедия.драма.DVDRip-AVC].[MVO].+.[AVO].(Толбин).torrent без регистрации
Золото ЗОЛОТАЯ РАЗДАЧА! СКАЧАННОЕ НЕ ЗАСЧИТЫВАЕТСЯ! Золото
Дата: Зарегистрирован   [ Тип: внутренний ] Как тут cкачать?
MAGNET ссылка
MAGNET ссылка


Скачать .torrent

19 KB

Статус: проверено
Скачан: торрент - 132 раз, раздача полностью - 7 раз
Размер: 1,83 GB
Оценка:  - (Голосов: 0)
Поблагодарили: 2
Поделиться ссылкой на эту раздачу с друзьями:
В контактеFacebookОдноклассникиTwitterLivejournalМой МирLiveinternet
 

 
Показать сообщения:    


Вы не можете начинать темы
Вы не можете отвечать на сообщения
Вы не можете редактировать свои сообщения
Вы не можете удалять свои сообщения
Вы не можете голосовать в опросах
Вы не можете прикреплять файлы к сообщениям
Вы можете скачивать файлы