Loading...
Error

Скачать Пленники небес / Heaven's Prisoners (Фил Джоану) [1996, триллер, детектив, HDTVRip] [AVC] [DVO торрент без регистрации

 
Статистика раздачи
Размер:  1,44 GB   |    Скачан:  151 раз
Сидов:  1  [  0 KB/s  ]  
 
Автор Сообщение

Marsianka

[] 

Информация о фильме
Название: Пленники небес
Оригинальное название: Heaven's Prisoners
Год выхода: 1996
Жанр: триллер, детектив
Режиссер: Фил Джоану
В ролях: Алек Болдуин, Келли Линч, Мэри Стюарт Мастерсон, Эрик Робертс, Тери Хэтчер, Вонди Куртис-Холл, Баджа Джола, Саманта Лагпасан, Джо Витерелли, Так Миллиган, Хоторн Джеймс, Дон Старк

О фильме:
Бывший крутой новоорлеанский полицейский Дэйв Робишо решил начать новую жизнь. Он бросил работу в «убойном отделе», завязал с выпивкой и вместе с женой поселился на берегу моря. Но все изменилось, когда он спас маленькую девочку, единственную выжившую после авиакатастрофы, произошедшей прямо на его глазах. Интерес к этому происшествию Управления по борьбе с наркотиками пробудил в Дэйве инстинкт детектива, и он начал собирать информацию о пассажирах затонувшего самолета.
Расследование привело его к школьному приятелю Буббе Року, ставшему боссом наркомафии. Несмотря на предупреждение «не лезть не в свое дело», Дэйв продолжает «копать» дальше и ввязывается в жестокую схватку...



Страна: США, Великобритания
Продолжительность: 02:12:23
Перевод: Профессиональный (двухголосый)

Файл
Качество: HDTVRip-AVC
Формат: MKV
Кодек: Н.264
Видео: 1056х592, 23,976 кадра/сек, 1299 Кбит/сек
Звук: AC3, 48 КГц, 2 канала, 256 Кбит/сек
Субтитры: отсутствуют
Формат : Matroska
Версия формата : Version 2
Размер файла : 1,44 Гбайт
Продолжительность : 2 ч. 12 м.
Общий поток : 1555 Кбит/сек
Дата кодирования : UTC 2012-03-24 16:31:32
Программа кодирования : mkvmerge v5.3.0 ('I could have danced') built on Feb 9 2012 10:38:07
Библиотека кодирования : libebml v1.2.3 + libmatroska v1.3.0

Видео
Идентификатор : 1
Формат : AVC
Формат/Информация : Advanced Video Codec
Профиль формата : High@L3.1
Параметр CABAC формата : Да
Параметр ReFrames формата : 4 кадра
Режим смешивания : Header stripping
Идентификатор кодека : V_MPEG4/ISO/AVC
Продолжительность : 2 ч. 12 м.
Битрейт : 1299 Кбит/сек
Ширина : 1056 пикселей
Высота : 592 пикселя
Соотношение сторон : 16:9
Частота кадров : 23,976 кадра/сек
Цветовое пространство : YUV
Субдискретизация насыщенности : 4:2:0
Битовая глубина : 8 бит
Тип развёртки : Прогрессивная
Бит/(Пиксели*Кадры) : 0.087
Размер потока : 1,17 Гбайт (82%)
Библиотека кодирования : x264 core 120 r2164 da19765
Настройки программы : cabac=1 / ref=3 / deblock=1:0:0 / analyse=0x3:0x111 / me=hex / subme=7 / psy=1 / psy_rd=1.00:0.00 / mixed_ref=1 / me_range=16 / chroma_me=1 / trellis=1 / 8x8dct=1 / cqm=0 / deadzone=21,11 / fast_pskip=1 / chroma_qp_offset=-2 / threads=6 / sliced_threads=0 / nr=0 / decimate=1 / interlaced=0 / bluray_compat=0 / constrained_intra=0 / bframes=3 / b_pyramid=2 / b_adapt=1 / b_bias=0 / direct=1 / weightb=1 / open_gop=0 / weightp=2 / keyint=240 / keyint_min=23 / scenecut=40 / intra_refresh=0 / rc_lookahead=40 / rc=2pass / mbtree=1 / bitrate=1299 / ratetol=1.0 / qcomp=0.60 / qpmin=0 / qpmax=69 / qpstep=4 / cplxblur=20.0 / qblur=0.5 / ip_ratio=1.40 / aq=1:1.00
Язык : English
Default : Да
Forced : Нет

Аудио
Идентификатор : 2
Формат : AC-3
Формат/Информация : Audio Coding 3
Профиль формата : Dolby Digital
Расширение режима : CM (complete main)
Режим смешивания : Header stripping
Идентификатор кодека : A_AC3
Продолжительность : 2 ч. 12 м.
Вид битрейта : Постоянный
Битрейт : 256 Кбит/сек
Каналы : 2 канала
Расположение каналов : Front: L R
Частота : 48,0 КГц
Битовая глубина : 16 бит
Метод сжатия : С потерями
Размер потока : 242 Мбайт (16%)
Язык :
Default : Нет
Forced : Нет





Скачать Пленники.небес.Heaven's.Prisoners.(Фил.Джоану).[1996.триллер.детектив.HDTVRip].[AVC].[DVO.torrent без регистрации
Золото ЗОЛОТАЯ РАЗДАЧА! СКАЧАННОЕ НЕ ЗАСЧИТЫВАЕТСЯ! Золото
Дата: Зарегистрирован   [ Тип: внутренний ] Как тут cкачать?
MAGNET ссылка
MAGNET ссылка


Скачать .torrent

15 KB

Статус: проверено DHT
Скачан: торрент - 151 раз, раздача полностью - 30 раз
Размер: 1,44 GB
Оценка:  - (Голосов: 0)
Поблагодарили: 2
Поделиться ссылкой на эту раздачу с друзьями:
В контактеFacebookОдноклассникиTwitterLivejournalМой МирLiveinternet
 

 
Показать сообщения:    


Вы не можете начинать темы
Вы не можете отвечать на сообщения
Вы не можете редактировать свои сообщения
Вы не можете удалять свои сообщения
Вы не можете голосовать в опросах
Вы не можете прикреплять файлы к сообщениям
Вы можете скачивать файлы