Loading...
Error

Скачать Невысказанная страсть / Unspoken passion / Sikil (Рони Бертубин) [2008, драма, гей-тема, DVDRip] [VO] торрент без регистрации

 
Статистика раздачи
Размер:  895 MB   |    Скачан:  136 раз

Полного источника не было: 9 месяцев

 
Автор Сообщение

Jenek

[] 

Информация о фильме
Название: Невысказанная страсть
Оригинальное название: Unspoken passion / Sikil
Жанр: Драма, Гей-тема
Год выпуска: 2008
Режиссер: Рони Бертубин / Roni Bertubin
В ролях: Кен Эскудеро, Вилл Сандехас, Эшли Сильверио, Джастин Пламмер, Рейнольд Расселл Сантос, Анджелина Пламмер, Сильвия Санчез, Дайдо Де Ла Пас, Эрни Гарсиа, Анита Линда, Джой Виадо, Софи Валдез и др.

Описание:

Трое друзей, два мальчика и девочка растут в небольшом городке к югу от Манилы. У них одни и те же мечты, одна и та же боль, одни и те же взгляды и страсти. Когда они достигают зрелого возраста, любовь в их сердцах вспыхивает с новой силой, и в этой идеальной дружбе придёт место выбору. Из друзей детства они превратятся в трёх разных людей, пытающихся найти своё "Я", ищущих глубокий смысл в своем существовании. Их дружба была почти идеальной, но выбор, который они должны сделать, может уничтожить их дружбу, особенно если мальчик любит мальчика.



Страна: Филиппины
Продолжительность: 01:48:55
Перевод: Любительский (одноголосый закадровый) || Перевод: zmaxic; озвучка: Василий Кошкин.
Cубтитры: нет

Файл
Качество: DVDRip
Формат: AVI
Видео: XviD, 656x352, 1.864, 29.970 fps, 946 Kbps
Аудио: MP3, 44.1 KHz, 192 Kbps, 2 channels

General
Complete name : D:ВИДЕОНа торрентSikil (2008) [Pinoy] rus.avi
Format : AVI
Format/Info : Audio Video Interleave
File size : 895 MiB
Duration : 1h 48mn
Overall bit rate : 1 149 Kbps
Video
ID : 0
Format : MPEG-4 Visual
Format profile : Advanced Simple@L5
Format settings, BVOP : No
Format settings, QPel : No
Format settings, GMC : No warppoints
Format settings, Matrix : Default (MPEG)
Codec ID : XVID
Codec ID/Hint : XviD
Duration : 1h 48mn
Bit rate : 946 Kbps
Width : 656 pixels
Height : 352 pixels
Display aspect ratio : 1.864
Frame rate : 29.970 fps
Color space : YUV
Chroma subsampling : 4:2:0
Bit depth : 8 bits
Scan type : Progressive
Compression mode : Lossy
Bits/(Pixel*Frame) : 0.137
Stream size : 737 MiB (82%)
Writing library : XviD 62
Audio
ID : 1
Format : MPEG Audio
Format version : Version 1
Format profile : Layer 3
Codec ID : 55
Codec ID/Hint : MP3
Duration : 1h 48mn
Bit rate mode : Constant
Bit rate : 192 Kbps
Channel(s) : 2 channels
Sampling rate : 44.1 KHz
Compression mode : Lossy
Stream size : 150 MiB (17%)
Alignment : Split accross interleaves
Interleave, duration : 35 ms (1.06 video frame)
Writing library : LAMELAME_MAJOR_VERSI



Скачать Невысказанная.страсть.Unspoken.passion.Sikil.(Рони.Бертубин).[2008.драма.гей-тема.DVDRip].[VO].torrent без регистрации
Золото ЗОЛОТАЯ РАЗДАЧА! СКАЧАННОЕ НЕ ЗАСЧИТЫВАЕТСЯ! Золото
Дата: Зарегистрирован   [ Тип: внутренний ] Как тут cкачать?
MAGNET ссылка
MAGNET ссылка


Скачать .torrent

18 KB

Статус: проверено
Скачан: торрент - 136 раз, раздача полностью - 32 раз
Размер: 895 MB
Оценка:  - (Голосов: 0)
Поблагодарили: 1
Поделиться ссылкой на эту раздачу с друзьями:
В контактеFacebookОдноклассникиTwitterLivejournalМой МирLiveinternet
 

 
Показать сообщения:    


Вы не можете начинать темы
Вы не можете отвечать на сообщения
Вы не можете редактировать свои сообщения
Вы не можете удалять свои сообщения
Вы не можете голосовать в опросах
Вы не можете прикреплять файлы к сообщениям
Вы можете скачивать файлы