Loading...
Error

Скачать Бездна / The Abyss (Джеймс Кэмерон) [1989, фантастика, боевик, триллер, драма, приключения, DVDRip] [Специальное издание] [AVO] торрент без регистрации

 
Статистика раздачи
Размер:  3,13 GB   |    Скачан:  165 раз
Сидов:  1  [  0 KB/s  ]  
 
Автор Сообщение

leon030982

[] 

Бездна / The Abyss
Страна: США
Жанр: фантастика, боевик, триллер, драма, приключения
Год выпуска: 1989
Продолжительность: 02:51:01
Перевод: Авторский (одноголосый закадровый) А. Гаврилов
Cубтитры: нет
Режиссер: Джеймс Кэмерон

В ролях: Эд Харрис /Ed Harris/, Мэри Элизабет Мастрантонио /Mary Elizabeth Mastrantonio/, Майкл Бьен /Michael Biehn/, Лео Берместер /Leo Burmester/, Джон Бедфорд Ллойд /John Bedford Lloyd/, Адам Нелсон /Adam Nelson/, Джордж Роберт Кик /George Robert Kiek/, Дж. С. Куинн /J. C. Quinn/, Кимберли Скотт /Kimberly Scott/, Кристофер Мерфи /Christopher Murphy

Описание: Атомная подводная лодка «Монтана» ВМФ США с ядерным оружием на борту терпит крушение на огромной глубине. Министерство флота просит помощи у специалистов подводной исследовательской станции, работающей неподалеку от места аварии субмарины.
При поддержке четырех военных разведчиков исследователи должны выяснить возможную причину трагедии и нейтрализовать ядерные боеголовки. Но в океанской бездне им предстоит столкнуться с неведомым…

IMDB 7.6/10 (55,888 votes)

Качество видео:DVDRip(Исх. DVD9)
Формат видео: AVI
Видео: 720x304 (2.37:1), 23.976 fps, XviD build 50 ~1972 kbps avg, 0.38 bit/pixel
Аудио: 48 kHz, AC3 Dolby Digital, 3/2 (L,C,R,l,r) + LFE ch, ~448 kbps
***********************************************************
Отдельно:
Аудио:44 kHz, MPEG Layer 3, 2 ch, ~192.00 kbps avg Живов
File: Bezdna.chopper887.avi
Title: Bezdna.chopper887
Author: chopper887
Copyleft: rutracker.org
Genre: Fantasy
Category: Movie
Filesize: 2972.58 Mb ( 3 116 972 032 bytes )
Play length: 02:51:01.876 (246039 frames)
Subtitles: Not Present
Video: 720x304 (2.37:1), 23.976 fps, XviD build 50 ~1972 kbps avg, 0.38 bit/pixel
Audio: 48 kHz, AC3 Dolby Digital, 3/2 (L,C,R,l,r) + LFE ch, ~448 kbps
General
Complete name : L:\Bezdna.chopper887.avi
Format : AVI
Format/Info : Audio Video Interleave
File size : 2.90 GiB
Duration : 2h 51mn
Overall bit rate : 2 430 Kbps
Movie name : Bezdna.chopper887
Director : chopper887
Genre : Fantasy
Writing application : VirtualDubMod 1.5.10.2 (build 2540/release)
Original source form/Name : Movie
Copyright : rutracker.org
Video
ID : 0
Format : MPEG-4 Visual
Format profile : AdvancedSimple@L5
Format settings, BVOP : Yes
Format settings, QPel : No
Format settings, GMC : No warppoints
Format settings, Matrix : Custom
Codec ID : XVID
Codec ID/Hint : XviD
Duration : 2h 51mn
Bit rate : 1 973 Kbps
Width : 720 pixels
Height : 304 pixels
Display aspect ratio : 2.35:1
Frame rate : 23.976 fps
Resolution : 24 bits
Colorimetry : 4:2:0
Scan type : Progressive
Bits/(Pixel*Frame) : 0.376
Stream size : 2.36 GiB (81%)
Writing library : XviD 1.2.1 (UTC 2008-12-04)
Audio
ID : 1
Format : AC-3
Format/Info : Audio Coding 3
Codec ID : 2000
Duration : 2h 51mn
Bit rate mode : Constant
Bit rate : 448 Kbps
Channel(s) : 6 channels
Channel positions : Front: L C R, Surround: L R, LFE
Sampling rate : 48.0 KHz
Stream size : 548 MiB (18%)
Alignment : Split accross interleaves
Interleave, duration : 42 ms (1.00 video frame)
Interleave, preload duration : 500 ms



Скачать Бездна.The.Abyss.(Джеймс.Кэмерон).[1989.фантастика.боевик.триллер.драма.приключения.DVDRip].[Специальное.издание].[AVO].torrent без регистрации
Золото ЗОЛОТАЯ РАЗДАЧА! СКАЧАННОЕ НЕ ЗАСЧИТЫВАЕТСЯ! Золото
Дата: Зарегистрирован   [ Тип: внутренний ] Как тут cкачать?
MAGNET ссылка
MAGNET ссылка


Скачать .torrent

16 KB

Статус: проверено DHT
Скачан: торрент - 165 раз, раздача полностью - 9 раз
Размер: 3,13 GB
Оценка:  - (Голосов: 0)
Поблагодарили: 1
Поделиться ссылкой на эту раздачу с друзьями:
В контактеFacebookОдноклассникиTwitterLivejournalМой МирLiveinternet
 

 
Показать сообщения:    


Вы не можете начинать темы
Вы не можете отвечать на сообщения
Вы не можете редактировать свои сообщения
Вы не можете удалять свои сообщения
Вы не можете голосовать в опросах
Вы не можете прикреплять файлы к сообщениям
Вы можете скачивать файлы