Loading...
Error

Скачать Хранилище 13 / Warehouse 13 (Сезон 2, Серии: 1-13 из 13) (Стивен Серджик, Джейс Александр, Винс Мисиано) [2010, фантастика, драма, детектив, WEB-DL][720p][LostFilm] торрент без регистрации

 
Статистика раздачи
Размер:  19,85 GB   |    Скачан:  391 раз
Сидов:  1  [  0 KB/s  ]  
 
Автор Сообщение

Shara

[] 

Хранилище 13 / Warehouse 13

Год выпуска: 2010
Страна: США
Жанр: фантастика, драма, детектив
Продолжительность серии: ~43 мин.
Перевод: профессиональный многоголосый закадровый, LostFilm
Русские субтитры: нет
Субтитры: Английские

Режиссёр: Стивен Серджик , Джейс Александр, Винс Мисиано

В ролях: Эдди МакКлинток, Джоэнн Келли, Сол Рубинек, Дженелл Уильямс, Саймон Рейнольдс, Эллисон Скальотти, Си Си Эйч Паундер, Роджер Рис, Jung-Yul Kim, Тайлер Хайнс

Описание: После спасения жизни президента, двух агентов Секретной службы переводят на секретный объект в штате Южная Дакота. Там содержатся сверхъестественные вещи, которые правительство США собирало в течение столетий. Их новое назначение — вернуть часть пропавших вещей и расследовать сообщения о новых.

Доп. информация:
Перевод: В. Богданов.
Озвучка: Студия "Kravec".



Качество: WEB-DL 720p
Формат: MKV
Видео кодек: H.264
Аудио кодек: AC3
Видео: MPEG-4 AVC, 1280x720, 23.976 fps, ~4000 kbps, 0.182 bit/pixel
Аудио 1: Русский, Dolby Digital, 5.1, 48 kHz, 448 kbps
Аудио 2: Английский, Dolby Digital, 5.1, 48 kHz, 384 kbps
Субтитры: Английские, SRT
1. Время покажет / Time Will Tell / 43:35
2. Кроткий / Mild Mannered / 43:42
3. Мы ничего не контролируем / Beyond Our Control / 43:42
4. Старшим надо уступать / Age Before Beauty / 43:44
5. 13.1 / 13.1 / 43:23
6. Помешательство / Around The Bend / 43:48
7. Ради команды / For the Team / 43:39
8. Сливаться осторожно / Merge with Caution / 43:44
9. Кровная месть / Vendetta / 43:39
10. Где и когда / Where and When / 43:26
11. Под землей / Buried / 43:29
12. Сброс / Reset / 43:47
13. Secret Santa / Переодетый Санта / 43:46


General
Complete name : Warehouse 13 S02E01 Time Will Tell.mkv
Format : Matroska
File size : 1.51 GiB
Duration : 43mn 36s
Overall bit rate : 4 956 Kbps
Encoded date : UTC 2010-07-18 12:20:08
Writing application : mkvmerge v3.4.0 ('Rapunzel') built on May 15 2010 09:38:20
Writing library : libebml v0.8.0 + libmatroska v0.9.0

Video
ID : 1
Format : AVC
Format/Info : Advanced Video Codec
Format profile : High@L3.1
Format settings, CABAC : No
Format settings, ReFrames : 2 frames
Muxing mode : Container profile=Unknown@3.1
Codec ID : V_MPEG4/ISO/AVC
Duration : 43mn 35s
Bit rate : 4 025 Kbps
Width : 1 280 pixels
Height : 720 pixels
Display aspect ratio : 16:9
Frame rate : 23.976 fps
Color space : YUV
Chroma subsampling : 4:2:0
Bit depth : 8 bits
Scan type : Progressive
Bits/(Pixel*Frame) : 0.182
Stream size : 1.23 GiB (81%)
Language : English
Color primaries : BT.709-5, BT.1361, IEC 61966-2-4, SMPTE RP177
Transfer characteristics : BT.709-5, BT.1361
Matrix coefficients : BT.709-5, BT.1361, IEC 61966-2-4 709, SMPTE RP177

Audio #1
ID : 2
Format : AC-3
Format/Info : Audio Coding 3
Mode extension : CM (complete main)
Codec ID : A_AC3
Duration : 43mn 36s
Bit rate mode : Constant
Bit rate : 448 Kbps
Channel(s) : 6 channels
Channel positions : Front: L C R, Side: L R, LFE
Sampling rate : 48.0 KHz
Stream size : 140 MiB (9%)
Language : Russian

Audio #2
ID : 3
Format : AC-3
Format/Info : Audio Coding 3
Mode extension : CM (complete main)
Codec ID : A_AC3
Duration : 43mn 36s
Bit rate mode : Constant
Bit rate : 384 Kbps
Channel(s) : 6 channels
Channel positions : Front: L C R, Side: L R, LFE
Sampling rate : 48.0 KHz
Stream size : 120 MiB (8%)
Language : English

Text
ID : 4
Format : UTF-8
Codec ID : S_TEXT/UTF8
Codec ID/Info : UTF-8 Plain Text
Language : English



Скачать Хранилище.13.Warehouse.13.(Сезон.2.Серии.1-13.из.13).(Стивен.Серджик.Джейс.Александр.Винс.Мисиано).[2010.фантастика.драма.детектив.WEB-DL][720p][LostFilm].torrent без регистрации
Золото ЗОЛОТАЯ РАЗДАЧА! СКАЧАННОЕ НЕ ЗАСЧИТЫВАЕТСЯ! Золото
Дата: Зарегистрирован   [ Тип: внутренний ] Как тут cкачать?
MAGNET ссылка
MAGNET ссылка


Скачать .torrent

101 KB

Статус: проверено DHT
Скачан: торрент - 391 раз, раздача полностью - 361 раз
Размер: 19,85 GB
Оценка:  5 (Голосов: 2)
Поблагодарили: 4
Поделиться ссылкой на эту раздачу с друзьями:
В контактеFacebookОдноклассникиTwitterLivejournalМой МирLiveinternet
 

 
Показать сообщения:    


Вы не можете начинать темы
Вы не можете отвечать на сообщения
Вы не можете редактировать свои сообщения
Вы не можете удалять свои сообщения
Вы не можете голосовать в опросах
Вы не можете прикреплять файлы к сообщениям
Вы можете скачивать файлы