Loading...
Error

Скачать Хранилище 13 / Warehouse 13 (Сезон 2, эпизод 1-13 из 13)[2010 г, фантастика, драма, детектив, WEB-DLRip][LostFilm] торрент без регистрации

 
Статистика раздачи
Размер:  10,01 GB   |    Скачан:  670 раз
Сидов:  1  [  0 KB/s  ]  
 
Автор Сообщение

Shara

[] 


[align=center]
Хранилище 13 / Warehouse 13

Год выпуска: 2010
Жанр: фантастика, драма, детектив

Продолжительность: ~ 45 мин
Перевод: Профессиональный многоголосый закадровый(LostFilm)
Субтитры: английские(внешние)
Режиссер: Джейс Александр / Jace Alexander, Винс Мисиано / Vince Misiano, Стивен Серджик / Stephen Surjik
Сценарий: Дэвид Симкинс / David Simkins, Джек Кенни / Jack Kenny, Джейн Эспенсон / Jane Espenson

Продюсер: Дэна Баратта / Dana Baratta, Дрю З. Гринберг / Drew Z. Greenberg, Andrew Seklir, Джек Кенни / Jack Kenny, Дэвид Симкинс / David Simkins
Оператор: Дерик В. Ундершульц / Derick V. Underschultz
Композитор: Эдвард Роджерс / Edward Rogers
В ролях:
Эдди МакКлинток (Pete Lattimer), Джоэнн Келли (Myka Bering), Сол Рубинек (Artie Nielsen), Дженелл Уильямс (Leena), Саймон Рейнольдс (Daniel Dickenson), Эллисон Скальотти (Claudia Donovan), Си Си Эйч Паундер (Mrs. Irene Frederic), Роджер Рис (James MacPherson), Jung-Yul Kim (Mrs. Frederic's Bodyguard), Сузанна Хартер (Justine Pounder), Гэбриел Хоган (Sam Martino), Тайлер Хайнс (Joshua Donovan)

Описание:
После спасения жизни президента, двух агентов Секретной службы переводят на секретный объект в штате Южная Дакота. Там содержатся сверхъестественные вещи, которые правительство США собирало в течение столетий. Их новое назначение - вернуть часть пропавших вещей и расследовать сообщения о новых.

Качество: WEB-DLRip
Формат: AVI

Видео кодек: XviD
Аудио кодек: AC3
Видео: 720x400 (1.80:1), 23.976 fps, XviD build 50 ~1999 kbps avg, 0.29 bit/pixel
Аудио Rus: 48 kHz, AC3 Dolby Digital, 2/0 (L,R) ch, ~256 kbps
Аудио Eng: 48 kHz, AC3 Dolby Digital, 2/0 (L,R) ch, ~256 kbps
Субтитры: SRT
Сведение под вебдл: Nez
Постер и баннер: Джарлакс2009

Рип: ЛП


General
Complete name : F:\Фтп\Сериалы\Хранилище 13(Warehouse 13)\Warehouse 13 Season 2 WEB-DLRip\Warehouse.13.s02e01.rus.eng.avi
Format : AVI
Format/Info : Audio Video Interleave
File size : 791 MiB
Duration : 43mn 45s
Overall bit rate : 2 526 Kbps
Writing application : VirtualDubMod 1.5.10.2 (build 2540/release)
Writing library : VirtualDubMod build 2540/release

Video

ID : 0
Format : MPEG-4 Visual
Format profile : Advanced Simple@L5
Format settings, BVOP : Yes
Format settings, QPel : No
Format settings, GMC : No warppoints
Format settings, Matrix : Default (MPEG)
Codec ID : XVID
Codec ID/Hint : XviD
Duration : 43mn 45s
Bit rate : 2 000 Kbps
Width : 720 pixels
Height : 400 pixels
Display aspect ratio : 16:9
Frame rate : 23.976 fps
Color space : YUV
Chroma subsampling : 4:2:0
Bit depth : 8 bits
Scan type : Progressive
Bits/(Pixel*Frame) : 0.290
Stream size : 626 MiB (79%)
Writing library : XviD 1.2.1 (UTC 2008-12-04)

Audio #1
ID : 1
Format : AC-3
Format/Info : Audio Coding 3
Mode extension : CM (complete main)
Codec ID : 2000
Duration : 43mn 45s
Bit rate mode : Constant
Bit rate : 256 Kbps
Channel(s) : 2 channels
Channel positions : Front: L R
Sampling rate : 48.0 KHz
Bit depth : 16 bits
Stream size : 80.1 MiB (10%)
Alignment : Split accross interleaves
Interleave, duration : 42 ms (1.00 video frame)
Interleave, preload duration : 500 ms

Audio #2
ID : 2
Format : AC-3
Format/Info : Audio Coding 3
Mode extension : CM (complete main)
Codec ID : 2000
Duration : 43mn 45s
Bit rate mode : Constant
Bit rate : 256 Kbps
Channel(s) : 2 channels
Channel positions : Front: L R
Sampling rate : 48.0 KHz
Bit depth : 16 bits
Stream size : 80.1 MiB (10%)
Alignment : Split accross interleaves
Interleave, duration : 42 ms (1.00 video frame)
Interleave, preload duration : 500 ms


* Time Will Tell
* Mild Mannered
* Beyond Our Control
* Age Before Beauty
* 13.1
* Around the Bend
* For the Team
* Merge With Caution
* Vendetta
* When and Where
* Buried (1)
* Reset (2)
* Secret Santa



Скачать Хранилище.13.Warehouse.13.(Сезон.2.эпизод.1-13.из.13)[2010.г.фантастика.драма.детектив.WEB-DLRip][LostFilm].torrent без регистрации
Золото ЗОЛОТАЯ РАЗДАЧА! СКАЧАННОЕ НЕ ЗАСЧИТЫВАЕТСЯ! Золото
Дата: Зарегистрирован   [ Тип: внутренний ] Как тут cкачать?
MAGNET ссылка
MAGNET ссылка


Скачать .torrent

52 KB

Статус: проверено DHT
Скачан: торрент - 670 раз, раздача полностью - 1003 раз
Размер: 10,01 GB
Оценка:  4,8 (Голосов: 5)
Поблагодарили: 12
Поделиться ссылкой на эту раздачу с друзьями:
В контактеFacebookОдноклассникиTwitterLivejournalМой МирLiveinternet
 

 

leon030982

[] 

как всегда комментов немеряно af как сериал вообще то?кто смотрел оставте отзывы
 

Shara

[] 

Да, народ комменты не любит оставлять ab

Сериал довольно ничего, просмотрел весь, веселенький сериал про всякие чудеса и артефакты, довольно легко и интересно смотрится.
 

leon030982

[] 

Shara писал(а):

Да, народ комменты не любит оставлять ab

Сериал довольно ничего, просмотрел весь, веселенький сериал про всякие чудеса и артефакты, довольно легко и интересно смотрится.
поверим админу и скачаем ab
предлагаю помимо кнопки ''Сказать спасибо '' рядом поставить чтото типа '' Подлдежит удалению'' для особо ''хороших раздач'' al
 

Shara

[] 

как показывает опыт, у всякой раздачи, даже "очень хорошей", есть свой личер, поэтому кнопку делать не будем, у нас же трекер для всех ab
 

leon030982

[] 

Shara писал(а):

как показывает опыт, у всякой раздачи, даже "очень хорошей", есть свой личер, поэтому кнопку делать не будем, у нас же трекер для всех ab
может и так ag
 

leon030982

[] 

когда будет 3-й сезон ab ???
 
Показать сообщения:    


Вы не можете начинать темы
Вы не можете отвечать на сообщения
Вы не можете редактировать свои сообщения
Вы не можете удалять свои сообщения
Вы не можете голосовать в опросах
Вы не можете прикреплять файлы к сообщениям
Вы можете скачивать файлы