Loading...
Error

Скачать Честная игра / Fair Game (Эндрю Сайпс) [1995, боевик, триллер, DVDRip] [Dub] торрент без регистрации

 
Статистика раздачи
Размер:  745 MB   |    Скачан:  143 раза
Сидов:  1  [  0 KB/s  ]  
 
Автор Сообщение

leon030982

[] 

Честная игра / Fair Game
Страна: США
Жанр: боевик, триллер
Год выпуска: 1995
Продолжительность: 01:26:47
Перевод: Профессиональный (дублированный)
Cубтитры: нет
Режиссер: Эндрю Сайпс

В ролях: Уильям Болдуин, Синди Кроуфорд, Стивен Беркофф, Кристофер МакДональд, Мигель Сандоваль, Йохан Карло, Сальма Хайек, Джон Бедфорд Ллойд, Олек Крупа, Дженетт Голдстин

Описание: Кэтрин Маккуин, красивая женщина-адвокат, сама того не подозревая, случайно вмешалась в крупную игру работников из бывшего КГБ. Ее хотят убрать как мелкую, но досадную помеху. Однако случай сводит ее с детективом Максом Киркпатриком, который тоже оказывается втянутым в «игру» и теряет трех своих друзей — полицейских.
Вместе они пытаются скрыться, но их местонахождение постоянно оказывается известным преследователям. Начинается настоящая охота, в которой еще пока не ясно кто охотник, а кто жертва.


Качество видео: DVDRip
Формат видео: AVI
Видео: 672x384 (1.75:1), 25 fps, XviD build 50 ~1062 kbps avg, 0.16 bit/pixel
Аудио: 48 kHz, MPEG Layer 3, 2 ch, ~128.00 kbps avg
C:\Users\Videos\Chestnaya_igra_745.avi
General
Complete name : C:\Users\Videos\Chestnaya_igra_745.avi
Format : AVI
Format/Info : Audio Video Interleave
File size : 745 MiB
Duration : 1h 26mn
Overall bit rate : 1 200 Kbps
Writing application : VirtualDubMod 1.5.10.2 (build 2540/release)
Writing library : VirtualDubMod build 2540/release
Video #0
ID : 0
Format : MPEG-4 Visual
Format profile : Advanced Simple@L5
Format settings, BVOP : 1
Format settings, QPel : No
Format settings, GMC : No warppoints
Format settings, Matrix : Custom
Codec ID : XVID
Codec ID/Hint : XviD
Duration : 1h 26mn
Bit rate : 1 063 Kbps
Width : 672 pixels
Height : 384 pixels
Display aspect ratio : 16:9
Frame rate : 25.000 fps
Color space : YUV
Chroma subsampling : 4:2:0
Bit depth : 8 bits
Scan type : Progressive
Compression mode : Lossy
Bits/(Pixel*Frame) : 0.165
Stream size : 660 MiB (89%)
Writing library : XviD 1.2.1 (UTC 2008-12-04)
Audio #1
ID : 1
Format : MPEG Audio
Format version : Version 1
Format profile : Layer 3
Codec ID : 55
Codec ID/Hint : MP3
Duration : 1h 26mn
Bit rate mode : Constant
Bit rate : 128 Kbps
Channel(s) : 2 channels
Sampling rate : 48.0 KHz
Compression mode : Lossy
Stream size : 79.4 MiB (11%)
Alignment : Aligned on interleaves
Interleave, duration : 40 ms (1.00 video frame)
Interleave, preload duration : 504 ms
Writing library : LAME3.98r
Encoding settings : -m s -V 4 -q 2 -lowpass 17 -b 128



Скачать Честная.игра.Fair.Game.(Эндрю.Сайпс).[1995.боевик.триллер.DVDRip].[Dub].torrent без регистрации
Золото ЗОЛОТАЯ РАЗДАЧА! СКАЧАННОЕ НЕ ЗАСЧИТЫВАЕТСЯ! Золото
Дата: Зарегистрирован   [ Тип: внутренний ] Как тут cкачать?
MAGNET ссылка
MAGNET ссылка


Скачать .torrent

15 KB

Статус: проверено DHT
Скачан: торрент - 143 раз, раздача полностью - 12 раз
Размер: 745 MB
Оценка:  2 (Голосов: 1)
Поблагодарили: 1
Поделиться ссылкой на эту раздачу с друзьями:
В контактеFacebookОдноклассникиTwitterLivejournalМой МирLiveinternet
 

 

leon030982

[] 

в школьном возрасте мне понравился,сейчас так не воспринимается bl личная оценка 3 из 5
 
Показать сообщения:    


Вы не можете начинать темы
Вы не можете отвечать на сообщения
Вы не можете редактировать свои сообщения
Вы не можете удалять свои сообщения
Вы не можете голосовать в опросах
Вы не можете прикреплять файлы к сообщениям
Вы можете скачивать файлы