Loading...
Error

Скачать Класс 1999: Новый учитель / Класс 1999. Фильм 2: Замена / Class of 1999 II: The Substitute (Спиро Разатос) [1994, боевик, фантастика, DVDRip] [AVO] (Сербин) торрент без регистрации

 
Статистика раздачи
Размер:  741 MB   |    Скачан:  236 раз
Сидов:  1  [  0 KB/s  ]  
 
Автор Сообщение

leon030982

[] 

Класс 1999: Новый учитель / Класс 1999. Фильм 2: Замена / Class of 1999 II: The Substitute
Страна: США
Жанр: боевик, фантастика
Год выпуска: 1994
Продолжительность: 01:26:50
Перевод: Авторский (одноголосый закадровый)
Cубтитры: нет
Режиссер: Спиро Разатос

В ролях: Саша Митчел, Кэйтлин Дюлэйни, Ник Кассаветис, Грегори Уэст, Рик Хилл, Джек Найт, Диего Серрано, Берни Пок

Описание: В школе появился новый учитель. Он обуздает распоясавшуюся шпану. У него нет жалости и сомнений. Он не чувствует боли и усталости. Он вершит свой суд хладнокровно и быстро. Он один решает: прав ты или виноват. И когда он вынесет тебе смертный приговор, может быть уже слишком поздно… Безумный ученый Боб Форест приспособил боевых киборгов для поддержания дисциплины в школах, превратившихся в рассадник хулиганства и бандитизма. Но не убрал из их программ инстинкт убийцы. Все такие учителя были вскоре ликвидированы, но один остался. Джон Болан, учитель на подмену, и оказался этим киборгом, считавшим своим священным долгом уничтожать всякую шпану, садистов и убийц в школьном возрасте. Список жертв этого крутого "макаренко" увеличивался, и близился кульминационный момент военной игры типа нашей "Зарницы", только с соответствующими 1999 году "примочками".

Доп. информация: Перевод Юрия Сербина для концерна "Видеосервис"
Сэмпл: http://multi-up.com/675845
Качество видео:
Формат видео: AVI
Видео: 624x480 (1.30:1), 25 fps, XviD build 47 ~1055 kbps avg, 0.14 bit/pixel
Аудио: 48 kHz, MPEG Layer 3, 2 ch, ~128.00 kbps avg
Общее
Полное имя : E:\Downloads\Class.of.1999.The.Substitute.1994.dvdrip.Serbin.avi
Формат : AVI
Формат/Информация : Audio Video Interleave
Размер файла : 741 Мбайт
Продолжительность : 1 ч. 26 м.
Общий поток : 1192 Кбит/сек
Программа кодирования : VirtualDubMod 1.5.10.2 (build 2542/release)
Библиотека кодирования : VirtualDubMod build 2542/release
Видео
Идентификатор : 0
Формат : MPEG-4 Visual
Профиль формата : Advanced Simple@L5
Параметр BVOP формата : 1
Параметр QPel формата : Нет
Параметр GMC формата : Без точки перехода
Параметр матрицы формата : Default (MPEG)
Идентификатор кодека : XVID
Идентификатор кодека/Подсказка : XviD
Продолжительность : 1 ч. 26 м.
Битрейт : 1056 Кбит/сек
Ширина : 624 пикселя
Высота : 480 пикселей
Соотношение сторон : 1,300
Частота кадров : 25,000 кадров/сек
Цветовое пространство : YUV
Субдискретизация насыщенности : 4:2:0
Битовая глубина : 8 бит
Тип развёртки : Прогрессивная
Метод сжатия : С потерями
Бит/(Пиксели*Кадры) : 0.141
Размер потока : 656 Мбайт (89%)
Библиотека кодирования : XviD 1.2.0.dev47 (UTC 2006-11-01)
Аудио
Идентификатор : 1
Формат : MPEG Audio
Версия формата : Version 1
Профиль формата : Layer 3
Режим : Joint stereo
Расширение режима : MS Stereo
Идентификатор кодека : 55
Идентификатор кодека/Подсказка : MP3
Продолжительность : 1 ч. 26 м.
Вид битрейта : Постоянный
Битрейт : 128 Кбит/сек
Каналы : 2 канала
Частота : 48,0 КГц
Метод сжатия : С потерями
Размер потока : 78,8 Мбайт (11%)
Выравнивание : Соединение по промежуткам
Продолжительность промежутка : 40 мс. (1,01 видеокадр)
Время предзагрузки промежутка : 504 мс.



Скачать Класс.1999.Новый.учитель.Класс.1999.Фильм.2.Замена.Class.of.1999.II.The.Substitute.(Спиро.Разатос).[1994.боевик.фантастика.DVDRip].[AVO].(Сербин).torrent без регистрации
Золото ЗОЛОТАЯ РАЗДАЧА! СКАЧАННОЕ НЕ ЗАСЧИТЫВАЕТСЯ! Золото
Дата: Зарегистрирован   [ Тип: внутренний ] Как тут cкачать?
MAGNET ссылка
MAGNET ссылка


Скачать .torrent

15 KB

Статус: проверено DHT
Скачан: торрент - 236 раз, раздача полностью - 25 раз
Размер: 741 MB
Оценка:  - (Голосов: 0)
Поблагодарили: 1
Поделиться ссылкой на эту раздачу с друзьями:
В контактеFacebookОдноклассникиTwitterLivejournalМой МирLiveinternet
 

 
Показать сообщения:    


Вы не можете начинать темы
Вы не можете отвечать на сообщения
Вы не можете редактировать свои сообщения
Вы не можете удалять свои сообщения
Вы не можете голосовать в опросах
Вы не можете прикреплять файлы к сообщениям
Вы можете скачивать файлы