Loading...
Error

Скачать Краткое содержание убийства / Профиль убийства / Profile for Murder (Дэвид Уиннинг) [1996, триллер, драма, VHSRip] [AVO] (Дольский) торрент без регистрации

 
Статистика раздачи
Размер:  1,46 GB   |    Скачан:  170 раз
Сидов:  1  [  0 KB/s  ]  
 
Автор Сообщение

leon030982

[] 

Краткое содержание убийства / Профиль убийства / Profile for Murder
Страна: Канада
Жанр: триллер, драма
Год выпуска: 1996
Продолжительность: 01:32:13
Перевод: Авторский (одноголосый закадровый)
Субтитры: нет
Режиссер: Дэвид Уиннинг
В ролях: Лэнс Хенриксен, Джейсон Нэш, Джоан Северанс, Джефф Уинкотт, Райан Майкл, Бенжамин Рэтнер, Дуайт МакФи, Пол Ву, Остин Басиле
Описание: Кровавая тайна загадочной яхты всерьез интересует полицию. Ее хозяин — дьявол-искуситель утоляет жажду страсти ненасытных красоток, но… кое-что забирает взамен. Смерть по собственному желанию…
Кинопоиск | IMDb | Сэмпл |

Качество видео: VHSRip
Формат видео: AVI
Видео: 656x512 (1.28:1), 25 fps, XviD build 50 ~1867 kbps avg, 0.22 bit/pixel
Аудио: 48 kHz, AC3 Dolby Digital, 2/0 (L,R) ch, ~384 kbps
Общее
Полное имя : kratkoe_soderjanie_ubiystva_vhsrip_1.46.avi
Формат : AVI
Формат/Информация : Audio Video Interleave
Размер файла : 1,46 Гбайт
Продолжительность : 1 ч. 32 м.
Общий поток : 2261 Кбит/сек
Программа кодирования : VirtualDubMod 1.5.10.3 | www.virtualdub-fr.org || (build 2550/release)
Библиотека кодирования : VirtualDubMod build 2550/release
Видео
Идентификатор : 0
Формат : MPEG-4 Visual
Профиль формата : Advanced Simple@L5
Параметр BVOP формата : 1
Параметр QPel формата : Нет
Параметр GMC формата : Без точки перехода
Параметр матрицы формата : Default (MPEG)
Идентификатор кодека : XVID
Идентификатор кодека/Подсказка : XviD
Продолжительность : 1 ч. 32 м.
Битрейт : 1868 Кбит/сек
Ширина : 656 пикс.
Высота : 512 пикс.
Соотношение сторон : 1,281
Частота кадров : 25,000 кадр/сек
Цветовое пространство : YUV
Подвыборка цветности : 4:2:0
Битовая глубина : 8 бит
Тип развёртки : Прогрессивная
Метод сжатия : С потерями
Бит/(Пиксели*Кадры) : 0.222
Размер потока : 1,20 Гбайт (83%)
Библиотека кодирования : XviD 1.2.1 (UTC 2008-12-04)
Аудио
Идентификатор : 1
Формат : AC-3
Формат/Информация : Audio Coding 3
Расширение режима : CM (complete main)
Идентификатор кодека : 2000
Продолжительность : 1 ч. 32 м.
Вид битрейта : Постоянный
Битрейт : 384 Кбит/сек
Канал(ы) : 2 канала(ов)
Расположение каналов : Front: L R
Частота : 48,0 КГц
Битовая глубина : 16 бит
Метод сжатия : С потерями
Размер потока : 253 Мбайт (17%)
Выравнивание : Разделение по промежуткам
Продолжительность промежутка : 40 мс. (1,00 видеокадр)
Время предзагрузки промежутка : 500 ms



Скачать Краткое.содержание.убийства.Профиль.убийства.Profile.for.Murder.(Дэвид.Уиннинг).[1996.триллер.драма.VHSRip].[AVO].(Дольский).torrent без регистрации
Золото ЗОЛОТАЯ РАЗДАЧА! СКАЧАННОЕ НЕ ЗАСЧИТЫВАЕТСЯ! Золото
Дата: Зарегистрирован   [ Тип: внутренний ] Как тут cкачать?
MAGNET ссылка
MAGNET ссылка


Скачать .torrent

15 KB

Статус: проверено DHT
Скачан: торрент - 170 раз, раздача полностью - 177 раз
Размер: 1,46 GB
Оценка:  - (Голосов: 0)
Поблагодарили: 1
Поделиться ссылкой на эту раздачу с друзьями:
В контактеFacebookОдноклассникиTwitterLivejournalМой МирLiveinternet
 

 
Показать сообщения:    


Вы не можете начинать темы
Вы не можете отвечать на сообщения
Вы не можете редактировать свои сообщения
Вы не можете удалять свои сообщения
Вы не можете голосовать в опросах
Вы не можете прикреплять файлы к сообщениям
Вы можете скачивать файлы