Loading...
Error

Скачать Между ангелом и бесом / Les anges gardiens (1995) DVDRip][ торрент без регистрации

 
Статистика раздачи
Размер:  2,61 GB   |    Скачан:  199 раз
Сидов:  1  [  0 KB/s  ]  
 
Автор Сообщение

Marsianka

[] 

Жанр: боевик, мелодрама, комедия, криминал
Страна: Франция
Режиссер: Жан-Мари Пуаре
В ролях: Жерар Депардье, Кристиан Клавье, Ева Гримальди, Ив Ренье, Фрэнки Син, Исе Тран, Анна Гейлор, Дженнифер Херрера, Даррен Шахлави, Ева Герцигова, Оливье Ашар, Ариэль Семенофф, Жан Шампьон, Julien Courbet, Мариз Деол, Alexandre Eskimo, Лорен Гендрон, Armelle Hourlier, Лорен Жобер, Стефани Жобер

Сюжет фильма: Владелец знаменитого парижского кабаре "Карко", любимец женщин Антуан Карко, внезапно оказывается втянутым в головокружительную операцию по спасению маленького китайского мальчика Бао. Карко вылетает в Гонконг за ребенком и значительной суммой денег. За ним и Бао гонится мафия, но Карко умудряется с помощью священника Тарэна вывезти мальчика в Париж. Но помимо мафии, Карко и Тарэна преследуют еще и ангелы... Только Карко - его совесть, ангел-хранитель, а Тарэна - ангел-искуситель...

Мировая премьера: 11 октября 1995



Продолжительность: 01:46:54
Качество видео: DVDRip
Видео: кодек: XviD, размер кадра: 704x304, битрейт: 2075 кб/с, bit/pixel: 0.388
Аудио #1: язык: Русский , перевод: многоголосый закадровый (профессиональный) [R5], кодек: AC3 5.1, битрейт: 384 кб/с
Аудио #2: язык: Французский , перевод: оригинал, кодек: AC3 5.1, битрейт: 448 кб/с
Аудио #3: язык: Русский , перевод: многоголосый закадровый (профессиональный) [РТР], кодек: AC3 2.0, битрейт: 192 кб/с [отдельно]
Аудио #4: язык: Русский , перевод: двухголосый закадровый (профессиональный) [ОРТ], кодек: AC3 2.0, битрейт: 192 кб/с [отдельно]
Аудио #5: язык: Английский , перевод: дублированный (дубляж), кодек: AC3 2.0, битрейт: 192 кб/с [отдельно]
Релиз группы: Автор рипа:
Общее
Формат : AVI
Формат/Информация : Audio Video Interleave
Профиль формата : OpenDML
Размер файла : 2,18 Гбайт
Продолжительность : 1 ч. 46 м.
Общий поток : 2925 Кбит/сек
Название фильма : Между ангелом и бесом / Les anges gardiens (1995) DVDRip
Режиссёр : tise
Программа кодирования : VirtualDubModRus 1.5.10.2 (build 2542/release)
Библиотека кодирования : VirtualDubMod build 2542/release
Правообладатель : www.powertracker.org

Видео
Идентификатор : 0
Формат : MPEG-4 Visual
Профиль формата : Advanced Simple@L5
Параметр BVOP формата : 2
Параметр QPel формата : Нет
Параметр GMC формата : Без точки перехода
Параметр матрицы формата : Default (MPEG)
Идентификатор кодека : XVID
Идентификатор кодека/Подсказка : XviD
Продолжительность : 1 ч. 46 м.
Битрейт : 2075 Кбит/сек
Ширина : 704 пикселя
Высота : 304 пикселя
Соотношение сторон : 2,35:1
Частота кадров : 25,000 кадров/сек
Цветовое пространство : YUV
Субдискретизация насыщенности : 4:2:0
Битовая глубина : 8 бит
Тип развёртки : Прогрессивная
Метод сжатия : С потерями
Бит/(Пиксели*Кадры) : 0.388
Размер потока : 1,55 Гбайт (71%)
Библиотека кодирования : XviD 1.2.1 (UTC 2008-12-04)

Аудио #1
Идентификатор : 1
Формат : AC-3
Формат/Информация : Audio Coding 3
Расширение режима : CM (complete main)
Идентификатор кодека : 2000
Продолжительность : 1 ч. 46 м.
Вид битрейта : Постоянный
Битрейт : 384 Кбит/сек
Каналы : 6 каналов
Расположение каналов : Front: L C R, Side: L R, LFE
Частота : 48,0 КГц
Битовая глубина : 16 бит
Метод сжатия : С потерями
Размер потока : 294 Мбайт (13%)
Выравнивание : Разделение по промежуткам
Продолжительность промежутка : 40 мс. (1,00 видеокадр)
Время предзагрузки промежутка : 500 мс.

Аудио #2
Идентификатор : 2
Формат : AC-3
Формат/Информация : Audio Coding 3
Расширение режима : CM (complete main)
Идентификатор кодека : 2000
Продолжительность : 1 ч. 46 м.
Вид битрейта : Постоянный
Битрейт : 448 Кбит/сек
Каналы : 6 каналов
Расположение каналов : Front: L C R, Side: L R, LFE
Частота : 48,0 КГц
Битовая глубина : 16 бит
Метод сжатия : С потерями
Размер потока : 343 Мбайт (15%)
Выравнивание : Разделение по промежуткам
Продолжительность промежутка : 40 мс. (1,00 видеокадр)
Время предзагрузки промежутка : 500 мс.



Скачать Между.ангелом.и.бесом.Les.anges.gardiens.(1995).DVDRip][.torrent без регистрации
Золото ЗОЛОТАЯ РАЗДАЧА! СКАЧАННОЕ НЕ ЗАСЧИТЫВАЕТСЯ! Золото
Дата: Зарегистрирован   [ Тип: внутренний ] Как тут cкачать?
MAGNET ссылка
MAGNET ссылка


Скачать .torrent

14 KB

Статус: проверено DHT
Скачан: торрент - 199 раз, раздача полностью - 10 раз
Размер: 2,61 GB
Оценка:  - (Голосов: 0)
Поблагодарили: 0
Поделиться ссылкой на эту раздачу с друзьями:
В контактеFacebookОдноклассникиTwitterLivejournalМой МирLiveinternet
 

 
Показать сообщения:    


Вы не можете начинать темы
Вы не можете отвечать на сообщения
Вы не можете редактировать свои сообщения
Вы не можете удалять свои сообщения
Вы не можете голосовать в опросах
Вы не можете прикреплять файлы к сообщениям
Вы можете скачивать файлы