Loading...
Error

Скачать Терминатор / Киборг убийца / The Terminator (Джеймс Кэмерон) [1984, фантастика, боевик, триллер, DVDRip] [Расширенная версия] [AVO] (Гаврилов) (Со вставками [VO] (Бирюков)) торрент без регистрации

 
Статистика раздачи
Размер:  745 MB   |    Скачан:  266 раз
Сидов:  1  [  0 KB/s  ]  
 
Автор Сообщение

leon030982

[] 

Терминатор / Киборг убийца / The Terminator / Расширенная версия
Страна: США, Великобритания
Жанр: фантастика, боевик, триллер
Год выпуска: 1984
Продолжительность: 01:56:09
Перевод: Авторский (одноголосый закадровый) Андрей Гаврилов + вставки на расширенные сцены любительский (одноголосый закадровый) Михаил Бирюков
Cубтитры: нет
Режиссер: Джеймс Кэмерон / James Cameron
В ролях: Арнольд Шварценеггер, Майкл Бьен, Линда Хэмилтон, Пол Уинфилд, Лэнс Хенриксен, Бесс Мотта, Эрл Боэн, Рик Россович, Дик Миллер, Шоун Шеппс
Описание: В 2029 году, в разгар войны между людьми и роботами, машины-убийцы с помощью суперкомпьютера «Скайнет» отправили в прошлое, в 1984 год, киборга-терминатора, который должен был убить женщину по имени Сара Коннор, чтобы не появился на свет ее сын, возглавивший в будущем восстание против роботов. Вслед за киборгом в 1984 год отправился и Кайл Рис, задача которого — остановить терминатора любой ценой!


Качество видео: DVDRip
Формат видео: AVI
Видео: 656x352 (1.86:1), 23.976 fps, XviD build 50 ~759 kbps avg, 0.14 bit/pixel
Аудио: 48 kHz, MPEG Layer 3, 2 ch, ~128.00 kbps avg огромное спасибо!
Расширенная версия (обычная идет около 01:47:00) Длиннее примерно на 9 минут.
1.Сара на работе (перед зеркалом)
2.Терминатор садится в машину(после первого убийства)
3.Погоня полицейских(2 сцены)
4.Разговор полицейских (обсуждение Риза)
5.Раненный полицейский передает пистолет Ризу
6.Звонок Сары матери
7.Ссора Сары и Кайла (около леса)
8.Расширена сцена в мотеле(2 сцены)
9.Показывают Кибердайн Системс
General
Complete name : D:\Релизы\(1984) Терминатор (Расширенная версия) (Гаврилов, Бирюков).avi
Format : AVI
Format/Info : Audio Video Interleave
File size : 745 MiB
Duration : 1h 56mn
Overall bit rate : 897 Kbps
Writing application : VirtualDubMod 1.5.10.2 (build 2540/release)
Writing library : VirtualDubMod build 2540/release
Video
ID : 0
Format : MPEG-4 Visual
Format profile : Advanced Simple@L5
Format settings, BVOP : 1
Format settings, QPel : No
Format settings, GMC : No warppoints
Format settings, Matrix : Custom
Codec ID : XVID
Codec ID/Hint : XviD
Duration : 1h 56mn
Bit rate : 759 Kbps
Width : 656 pixels
Height : 352 pixels
Display aspect ratio : 1.864
Frame rate : 23.976 fps
Color space : YUV
Chroma subsampling : 4:2:0
Bit depth : 8 bits
Scan type : Progressive
Compression mode : Lossy
Bits/(Pixel*Frame) : 0.137
Stream size : 631 MiB (85%)
Writing library : XviD 1.2.1 (UTC 2008-12-04)
Audio
ID : 1
Format : MPEG Audio
Format version : Version 1
Format profile : Layer 3
Mode : Joint stereo
Codec ID : 55
Codec ID/Hint : MP3
Duration : 1h 56mn
Bit rate mode : Constant
Bit rate : 128 Kbps
Channel(s) : 2 channels
Sampling rate : 48.0 KHz
Compression mode : Lossy
Stream size : 106 MiB (14%)
Alignment : Aligned on interleaves
Interleave, duration : 42 ms (1.00 video frame)
Interleave, preload duration : 504 ms
Writing library : LAME3.98r
Encoding settings : -m j -V 4 -q 2 -lowpass 17 -b 128



Скачать Терминатор.Киборг.убийца.The.Terminator.(Джеймс.Кэмерон).[1984.фантастика.боевик.триллер.DVDRip].[Расширенная.версия].[AVO].(Гаврилов).(Со.вставками.[VO].(Бирюков)).torrent без регистрации
Золото ЗОЛОТАЯ РАЗДАЧА! СКАЧАННОЕ НЕ ЗАСЧИТЫВАЕТСЯ! Золото
Дата: Зарегистрирован   [ Тип: внутренний ] Как тут cкачать?
MAGNET ссылка
MAGNET ссылка


Скачать .torrent

15 KB

Статус: проверено DHT
Скачан: торрент - 266 раз, раздача полностью - 67 раз
Размер: 745 MB
Оценка:  4 (Голосов: 1)
Поблагодарили: 3
Поделиться ссылкой на эту раздачу с друзьями:
В контактеFacebookОдноклассникиTwitterLivejournalМой МирLiveinternet
 

 

jon99

[] 

О этот гундосливый голос в начале ab , у Гаврилова раньше перевод ржачный был ag - "Киборг Убийца" ay
 

leon030982

[] 

jon99 писал(а):

Гундос в начале оказывается Бирюков а я и не знал ab , но и у Гаврилова раньше перевод ржачный был ag - "Киборг Убийца" ay
на Гаврилова попрошу не гнать ab он мастер своего дела, это не современные школото озвучатели ag
 

jon99

[] 

leon030982
да я и не гоню просто название стебно перевел ab поправочка там 2 голоса в озвучке у Бирюкова чистый голос !
 
Показать сообщения:    


Вы не можете начинать темы
Вы не можете отвечать на сообщения
Вы не можете редактировать свои сообщения
Вы не можете удалять свои сообщения
Вы не можете голосовать в опросах
Вы не можете прикреплять файлы к сообщениям
Вы можете скачивать файлы