Loading...
Error

Скачать Аран / Arang (Ан Сан Хун) [2006, Мистика, ужасы, триллер, детектив, DVDRip] [VO] (den904) торрент без регистрации

 
Статистика раздачи
Размер:  638 MB   |    Скачан:  117 раз
Сидов:  1  [  0 KB/s  ]  
 
Автор Сообщение

leon030982

[] 

Аран / Arang

Страна: Южная Корея
Жанр: Мистика, ужасы, триллер, детектив
Год выпуска: 2006
Продолжительность: 01:37:59
Перевод: Одноголосый закадровый den904
Cубтитры: нет
Режиссер: Ан Сан Хун

В ролях: Чу Со Ён, Чжун Вон Юн, Ли Дон Ук, Ким Хэ Ин, Ким О Бин, Ли Чжон Су, Сон Ю На

Описание: Детектив Со Ён получает в напарники новичка Хюн Ки. Первым их делом становится странное убийство. Вскоре напарники обнаруживают, что это убийство каким-то образом связано с таинственной смертью девочки, которая умерла 10 лет назад. C этого момента Со Ён начинают мучать кошмары, в которых ей являться мертвая девочка и убийства продолжаются.

Качество видео: DVDRip
Формат видео: AVI
Сэмпл - http://multi-up.com/673256
Видео: DivX 5, 704x384, 706 Кбит/сек, 16:9, 23.975
Аудио: MP3, 44,1 КГц, 192 Кбит/сек, 2 канала
Формат : AVI
Формат/Информация : Audio Video Interleave
Размер файла : 638 Мбайт
Продолжительность : 1 ч. 37 м.
Общий поток : 910 Кбит/сек
Библиотека кодирования : MPlayer
Видео
Идентификатор : 0
Формат : MPEG-4 Visual
Профиль формата : Simple@L1
Параметр BVOP формата : Нет
Параметр QPel формата : Нет
Параметр GMC формата : Без точки перехода
Параметр матрицы формата : Default (H.263)
Идентификатор кодека : DX50
Идентификатор кодека/Подсказка : DivX 5
Продолжительность : 1 ч. 37 м.
Битрейт : 706 Кбит/сек
Ширина : 704 пикселя
Высота : 384 пикселя
Соотношение сторон : 16:9
Частота кадров : 23,976 кадра/сек
Цветовое пространство : YUV
Субдискретизация насыщенности : 4:2:0
Битовая глубина : 8 бит
Тип развёртки : Чересстрочная
Порядок развёртки : Верхнее поле первое
Метод сжатия : С потерями
Бит/(Пиксели*Кадры) : 0.109
Размер потока : 495 Мбайт (78%)
Библиотека кодирования : Lavc52.72.2
Аудио
Идентификатор : 1
Формат : MPEG Audio
Версия формата : Version 1
Профиль формата : Layer 3
Режим : Joint stereo
Расширение режима : MS Stereo
Идентификатор кодека : 55
Идентификатор кодека/Подсказка : MP3
Продолжительность : 1 ч. 37 м.
Вид битрейта : Постоянный
Битрейт : 192 Кбит/сек
Каналы : 2 канала
Частота : 44,1 КГц
Метод сжатия : С потерями
Размер потока : 135 Мбайт (21%)
Выравнивание : Соединение по промежуткам
Продолжительность промежутка : 26 мс. (0,63 видеокадр)
Время предзагрузки промежутка : 809 мс.
- наличие русской озвучки



Скачать Аран.Arang.(Ан.Сан.Хун).[2006.Мистика.ужасы.триллер.детектив.DVDRip].[VO].(den904).torrent без регистрации
Золото ЗОЛОТАЯ РАЗДАЧА! СКАЧАННОЕ НЕ ЗАСЧИТЫВАЕТСЯ! Золото
Дата: Зарегистрирован   [ Тип: внутренний ] Как тут cкачать?
MAGNET ссылка
MAGNET ссылка


Скачать .torrent

13 KB

Статус: проверено DHT
Скачан: торрент - 117 раз, раздача полностью - 5 раз
Размер: 638 MB
Оценка:  - (Голосов: 0)
Поблагодарили: 1
Поделиться ссылкой на эту раздачу с друзьями:
В контактеFacebookОдноклассникиTwitterLivejournalМой МирLiveinternet
 

 
Показать сообщения:    


Вы не можете начинать темы
Вы не можете отвечать на сообщения
Вы не можете редактировать свои сообщения
Вы не можете удалять свои сообщения
Вы не можете голосовать в опросах
Вы не можете прикреплять файлы к сообщениям
Вы можете скачивать файлы