Loading...
Error

Скачать Синяя Ласточка / Небесная ласточка / Blue Swallow / Cheong yeon (Юн Чжон Чхан) [2005, Мелодрама, DVDRip] [DVO] (GREEN TEA) торрент без регистрации

 
Статистика раздачи
Размер:  2,18 GB   |    Скачан:  110 раз

Полного источника не было: Никогда

 
Автор Сообщение

leon030982

[] 

Синяя Ласточка / Небесная ласточка / Blue Swallow / Cheong yeon
Страна: Корея Южная
Жанр: Мелодрама
Год выпуска: 2005
Продолжительность: 2:11:00
Перевод: Любительский (двухголосый закадровый) Ульяна Громова, Ustas Alexis
Cубтитры: нет
Режиссер: Юн Чжон Чхан

В ролях: Ян Чжин Ён, Ким Чжу Хёк, Ю Мин

Описание: Первая корейская женщина-пилот, Пак Гён Вон, родилась в бедной семье в то время, когда Корея принадлежала Японской Империи. Чтобы стать пилотом ей пришлось уехать в Японию.

Сначала она работала шофером такси, чтобы оплачивать занятия в летной школе. И, в конце концов, Гён Вон добилась своего и получила лицензию пилота.
Она погибла в авиационной катастрофе в ходе беспосадочного перелета из Кореи в японский город Идзу.

Доп. информация: Озвучено по субтитрам: Mike & Akka, Редактор: CIV
Релиз: релиз-группа "GREEN TEA"
Сэмпл: http://multi-up.com/676458
Качество видео: DVDRip
Формат видео: AVI
Видео: 720x304(2.35:1), 23.976 fps, 1975 kbps, 0.376 bit/pixel
Аудио: Русский, 48 kHz, AC3, 3/2 (L,C,R,l,r) + LFE ch, ~384 kbps avg
Полное имя : G:\Sinyaya.Lastochka.2005.RUS.DVDRip.XviD.AC3.GREEN TEA.avi
Формат : AVI
Формат/Информация : Audio Video Interleave
Профиль формата : OpenDML
Размер файла : 2,18 Гбайт
Продолжительность : 2 ч. 11 м.
Общий поток : 2371 Кбит/сек
Программа кодирования : VirtualDubMod 1.5.10.2 (build 2540/release)
Библиотека кодирования : VirtualDubMod build 2540/release
Видео
Идентификатор : 0
Формат : MPEG-4 Visual
Профиль формата : Advanced Simple@L5
Параметр BVOP формата : 1
Параметр QPel формата : Нет
Параметр GMC формата : Без точки перехода
Параметр матрицы формата : Выборочная
Режим смешивания : Сжатый битовый поток
Идентификатор кодека : XVID
Идентификатор кодека/Подсказка : XviD
Продолжительность : 2 ч. 11 м.
Битрейт : 1975 Кбит/сек
Ширина : 720 пикс.
Высота : 304 пикс.
Соотношение сторон : 2,35:1
Частота кадров : 23,976 кадр/сек
Цветовое пространство : YUV
Подвыборка цветности : 4:2:0
Битовая глубина : 8 бит
Тип развёртки : Прогрессивная
Метод сжатия : С потерями
Бит/(Пиксели*Кадры) : 0.376
Размер потока : 1,82 Гбайт (83%)
Библиотека кодирования : XviD 64
Аудио
Идентификатор : 1
Формат : AC-3
Формат/Информация : Audio Coding 3
Расширение режима : CM (complete main)
Идентификатор кодека : 2000
Продолжительность : 2 ч. 11 м.
Вид битрейта : Постоянный
Битрейт : 384 Кбит/сек
Каналы : 6 каналов
Расположение каналов : Front: L C R, Side: L R, LFE
Частота : 48,0 КГц
Битовая глубина : 16 бит
Метод сжатия : С потерями
Размер потока : 361 Мбайт (16%)
Выравнивание : Разделение по промежуткам
Продолжительность промежутка : 42 мс. (1,00 видеокадр)
Время предзагрузки промежутка : 500 ms



Скачать Синяя.Ласточка.Небесная.ласточка.Blue.Swallow.Cheong.yeon.(Юн.Чжон.Чхан).[2005.Мелодрама.DVDRip].[DVO].(GREEN.TEA).torrent без регистрации
Золото ЗОЛОТАЯ РАЗДАЧА! СКАЧАННОЕ НЕ ЗАСЧИТЫВАЕТСЯ! Золото
Дата: Зарегистрирован   [ Тип: внутренний ] Как тут cкачать?
MAGNET ссылка
MAGNET ссылка


Скачать .torrent

11 KB

Статус: проверено
Скачан: торрент - 110 раз, раздача полностью - 0 раз
Размер: 2,18 GB
Оценка:  - (Голосов: 0)
Поблагодарили: 1
Поделиться ссылкой на эту раздачу с друзьями:
В контактеFacebookОдноклассникиTwitterLivejournalМой МирLiveinternet
 

 
Показать сообщения:    


Вы не можете начинать темы
Вы не можете отвечать на сообщения
Вы не можете редактировать свои сообщения
Вы не можете удалять свои сообщения
Вы не можете голосовать в опросах
Вы не можете прикреплять файлы к сообщениям
Вы можете скачивать файлы