Loading...
Error

Скачать Родители / Parenthood (Рон Хауард / Ron Howard) [1989, комедия, DVDRip] [AVO] (Михалев) торрент без регистрации

 
Статистика раздачи
Размер:  1,46 GB   |    Скачан:  124 раза
Сидов:  1  [  0 KB/s  ]  
 
Автор Сообщение

leon030982

[] 

Родители / Parenthood
Год выпуска: 1989
Страна: США
Жанр: комедия
Продолжительность: 02:06:02
Перевод: Авторский (одноголосый закадровый) Михалев
Cубтитры: нет

Режиссер: Рон Хауард / Ron Howard

В ролях: Стив Мартин, Дайэнн Уист, Деннис Дуган, Мэри Стинберген, Пол Линке, Джейсон Робардс, Рик Морэнис, Том Халс, Марта Плимптон, Киану Ривз

Описание: Быть главой большой семьи — задача не из легких. Тем более, если ты, как любой уважающий себя родитель, хочешь, чтобы твои дети выросли приличными людьми. Вот Гилу Бакмену и приходится «крутиться», чтобы делать успешную карьеру, и одновременно быть любящим мужем и заботливым отцом.


Сэмпл: http://multi-up.com/676208

Качество видео: DVDRip
Формат видео: AVI
Видео: 720x536 (1.34:1), 23.976 fps, XviD build 50 ~1463 kbps avg, 0.16 bit/pixel
Аудио: 48 kHz, AC3 Dolby Digital, 2/0 (L,R) ch, ~192.00 kbps avg
Format : AVI
Format/Info : Audio Video Interleave
File size : 1.46 GiB
Duration : 2h 6mn
Overall bit rate : 1 661 Kbps
Writing application : VirtualDubMod 1.5.10.3 | www.virtualdub-fr.org || (build 2550/release)
Writing library : VirtualDubMod build 2550/release
Video
ID : 0
Format : MPEG-4 Visual
Format profile : Advanced Simple@L5
Format settings, BVOP : Yes
Format settings, QPel : No
Format settings, GMC : No warppoints
Format settings, Matrix : Default (MPEG)
Codec ID : DX50
Codec ID/Hint : DivX 5
Duration : 2h 6mn
Bit rate : 1 463 Kbps
Width : 720 pixels
Height : 536 pixels
Display aspect ratio : 4:3
Frame rate : 23.976 fps
Resolution : 8 bits
Colorimetry : 4:2:0
Scan type : Progressive
Bits/(Pixel*Frame) : 0.158
Stream size : 1.29 GiB (88%)
Writing library : XviD 1.2.1 (UTC 2008-12-04)
Audio
ID : 1
Format : AC-3
Format/Info : Audio Coding 3
Codec ID : 2000
Duration : 2h 3mn
Bit rate mode : Constant
Bit rate : 192 Kbps
Channel(s) : 2 channels
Channel positions : L R
Sampling rate : 48.0 KHz
Stream size : 170 MiB (11%)
Alignment : Split accross interleaves
Interleave, duration : 42 ms (1.02 video frame)
Interleave, preload duration : 500 ms



Скачать Родители.Parenthood.(Рон.Хауард.Ron.Howard).[1989.комедия.DVDRip].[AVO].(Михалев).torrent без регистрации
Золото ЗОЛОТАЯ РАЗДАЧА! СКАЧАННОЕ НЕ ЗАСЧИТЫВАЕТСЯ! Золото
Дата: Зарегистрирован   [ Тип: внутренний ] Как тут cкачать?
MAGNET ссылка
MAGNET ссылка


Скачать .torrent

15 KB

Статус: проверено DHT
Скачан: торрент - 124 раз, раздача полностью - 1 раз
Размер: 1,46 GB
Оценка:  - (Голосов: 0)
Поблагодарили: 1
Поделиться ссылкой на эту раздачу с друзьями:
В контактеFacebookОдноклассникиTwitterLivejournalМой МирLiveinternet
 

 
Показать сообщения:    


Вы не можете начинать темы
Вы не можете отвечать на сообщения
Вы не можете редактировать свои сообщения
Вы не можете удалять свои сообщения
Вы не можете голосовать в опросах
Вы не можете прикреплять файлы к сообщениям
Вы можете скачивать файлы