Loading...
Error

Скачать Алькатрас / Alcatraz (Сезон 1 ) (Брэд Андерсон, Джек Бендер, Дэнни Кэннон) [2012, боевик, триллер, детектив, HDTVRip] [MVO] [ArtSound] торрент без регистрации

 
Статистика раздачи
Размер:  4,66 GB   |    Скачан:  180 раз
Сидов:  1  [  0 KB/s  ]  
 
Автор Сообщение

leon030982

[] 

Алькатрас / Alcatraz
Год выпуска: 2012
Страна: США
Жанр: боевик, триллер, детектив
Продолжительность: ~00:45:00
Перевод: Любительский многоголосый закадровый [ArtSound]
Русские субтитры: нет
Субтитры: отсутствуют
Режиссёр: Брэд Андерсон, Джек Бендер, Дэнни Кэннон
В ролях: Джонатан Койн, Сэмюэл Патрик Чу, Хорхе Гарсиа, Сара Джонс, Джеффри Пирс, Дэвид Хофлин, Joe Egender, Джинэнн Гуссен, Сэм Нил, Джеймс Бэмфорд
Описание: История доктора Диего Сото, лучшего в мире знатока самой знаменитой американской тюрьмы «Алькатрас», расположенной на острове у берегов Сан-Франциско. Сото предстоит разгадать тайну, связанную с загадочным исчезновением заключенных и охранников «Алькатраса» много лет назад и неожиданным их появлением в уже недействующей тюрьме (она была закрыта в 1963 году) в наши дни.

Доп. информация:
Озвучено Творческим объединением ArtSound
Голоса: Leshqa, МишкаГамми, Окси
Работа со звуком: МишкаГамми
Перевод: ArtSound
Сэмпл
Качество: HDTVRip
Формат: AVI
Видео кодек: XviD
Аудио кодек: MP3
Видео: 624x352, 23.97 fps, 1 097 Kbps, 0.208(bit/pixel)
Аудио: 48 kHz, MPEG Layer 3, 2 ch, 192.00 kbps avg
|

Код:

Format                                   : AVI
Format/Info                              : Audio Video Interleave
File size                                : 413 MiB
Duration                                 : 44mn 27s
Overall bit rate                         : 1 298 Kbps
Writing application                      : VirtualDubModRus 1.5.10.2 (build 2542/release)
Writing library                          : VirtualDubMod build 2542/release
Video
ID                                       : 0
Format                                   : xvid
Codec ID                                 : xvid
Duration                                 : 44mn 27s
Bit rate                                 : 1 097 Kbps
Width                                    : 624 pixels
Height                                   : 352 pixels
Display aspect ratio                     : 16:9
Frame rate                               : 23.976 fps
Bits/(Pixel*Frame)                       : 0.208
Stream size                              : 349 MiB (84%)
Audio
ID                                       : 1
Format                                   : MPEG Audio
Format version                           : Version 1
Format profile                           : Layer 3
Codec ID                                 : 55
Codec ID/Hint                            : MP3
Duration                                 : 44mn 27s
Bit rate mode                            : Constant
Bit rate                                 : 192 Kbps
Channel(s)                               : 2 channels
Sampling rate                            : 48.0 KHz
Compression mode                         : Lossy
Stream size                              : 61.0 MiB (15%)
Alignment                                : Aligned on interleaves
Interleave, duration                     : 42 ms (1.00 video frame)
Interleave, preload duration             : 504 ms
[align=center]

Код:

Внимание! Раздача ведётся путём добавления новых серий; при каждом добавлении создётся новый торрент. Чтобы начать докачку новой серии, пользователям необходимо сделать следующее:
(1) остановить скачивание,
(2) удалить старый торрент у себя из клиента (старые серии удалять не надо),
(3) скачать новый торрент и запустить его у себя в клиенте вместо старого, при этом указать клиенту путь в старую папку куда и должно происходить скачивание новых серий.
Ваш клиент при этом должен произвести хеширование (проверку) старой папки (если не производит сам - помогите ему сделать это), и будет докачивать только те серии которых у вас ещё нет. Старые серии при этом не удаляются, а продолжают раздаваться!
Eсли вы уже удалили старые серии, то предотвратить повторную закачку старых серий можно, отжав галочку в соответсвующих местах при запуске нового торрента. По возможности, желательно не удалять старые серии как можно дольше чтобы релизёр не столько продолжал раздавать старые серии, а смог сконцентрироваться на новых.

Добавлена финальная 13-я серия.

Не забываем говорить "Спасибо!"




Скачать Алькатрас.Alcatraz.(Сезон.1.).(Брэд.Андерсон.Джек.Бендер.Дэнни.Кэннон).[2012.боевик.триллер.детектив.HDTVRip].[MVO].[ArtSound].torrent без регистрации
Золото ЗОЛОТАЯ РАЗДАЧА! СКАЧАННОЕ НЕ ЗАСЧИТЫВАЕТСЯ! Золото
Дата: Зарегистрирован   [ Тип: внутренний ] Как тут cкачать?
MAGNET ссылка
MAGNET ссылка


Скачать .torrent

14 KB

Статус: проверено DHT
Скачан: торрент - 180 раз, раздача полностью - 67 раз
Размер: 4,66 GB
Оценка:  5 (Голосов: 1)
Поблагодарили: 3
Поделиться ссылкой на эту раздачу с друзьями:
В контактеFacebookОдноклассникиTwitterLivejournalМой МирLiveinternet
 

 
Показать сообщения:    


Вы не можете начинать темы
Вы не можете отвечать на сообщения
Вы не можете редактировать свои сообщения
Вы не можете удалять свои сообщения
Вы не можете голосовать в опросах
Вы не можете прикреплять файлы к сообщениям
Вы можете скачивать файлы