Loading...
Error

Скачать Где Господь оставил свои ботинки / Where God Left His Shoes (Сальваторе Стэбил) [2007, Драма, DVDRip] [DVO] торрент без регистрации

 
Статистика раздачи
Размер:  1,47 GB   |    Скачан:  130 раз
Сидов:  1  [  0 KB/s  ]  
 
Автор Сообщение

leon030982

[] 

Где Господь оставил свои ботинки / Where God Left His Shoes
Страна: США
Жанр: Драма
Год выпуска: 2007
Продолжительность: 01:36:43
Перевод: Профессиональный (двухголосый закадровый) студия NLS
Cубтитры: нет
Режиссер: Сальваторе Стэбил

В ролях: Джон Легуизамо, Леонор Варела, Дэвид Кастро, Саманта М. Роуз, Дэвид Эбельс, Роза Арредондо, Майкл Басиле, Д.С. Бенни

Описание: Грустная история о том, как, в прошлом боксёр, а ныне безработный, Фрэнк с семьёй был выставлен из квартиры. Пожив несколько месяцев в приюте для бездомных у них появился проблеск надежды - в канун Рождества власти решили распределить социальное жильё особо нуждающимся. Но для начала надо найти работу, чтобы иметь право на социальное жильё...

Сэмпл: http://multi-up.com/661821
Качество видео: DVDRip
Формат видео: AVI
Видео: 720x384 (1.88:1), 25 fps, XviD build 50, 1968 kbps avg, 0.28 bit/pixel
Аудио: Russian: 48 kHz, AC3 Dolby Digital, 2/0 (L,R) ch, 192.00 kbps avg
General
Complete name : E:\Мои раздачи\Where God Left His Shoes_RG_All_Films.avi
Format : AVI
Format/Info : Audio Video Interleave
File size : 1.47 GiB
Duration : 1h 36mn
Overall bit rate : 2 170 Kbps
Writing application : VirtualDubMod 1.5.10.3 | www.virtualdub-fr.org || (build 2550/release)
Writing library : VirtualDubMod build 2550/release
Video
ID : 0
Format : MPEG-4 Visual
Format profile : Advanced Simple@L5
Format settings, BVOP : Yes
Format settings, QPel : No
Format settings, GMC : No warppoints
Format settings, Matrix : Custom
Codec ID : XVID
Codec ID/Hint : XviD
Duration : 1h 36mn
Bit rate : 1 968 Kbps
Width : 720 pixels
Height : 384 pixels
Display aspect ratio : 1.875
Frame rate : 25.000 fps
Color space : YUV
Chroma subsampling : 4:2:0
Bit depth : 8 bits
Scan type : Progressive
Compression mode : Lossy
Bits/(Pixel*Frame) : 0.285
Stream size : 1.33 GiB (91%)
Writing library : XviD 1.2.1 (UTC 2008-12-04)
Audio
ID : 1
Format : AC-3
Format/Info : Audio Coding 3
Mode extension : CM (complete main)
Codec ID : 2000
Duration : 1h 36mn
Bit rate mode : Constant
Bit rate : 192 Kbps
Channel(s) : 2 channels
Channel positions : Front: L R
Sampling rate : 48.0 KHz
Bit depth : 16 bits
Compression mode : Lossy
Stream size : 133 MiB (9%)
Alignment : Split accross interleaves
Interleave, duration : 40 ms (1.00 video frame)
Interleave, preload duration : 500 ms



Скачать Где.Господь.оставил.свои.ботинки.Where.God.Left.His.Shoes.(Сальваторе.Стэбил).[2007.Драма.DVDRip].[DVO].torrent без регистрации
Золото ЗОЛОТАЯ РАЗДАЧА! СКАЧАННОЕ НЕ ЗАСЧИТЫВАЕТСЯ! Золото
Дата: Зарегистрирован   [ Тип: внутренний ] Как тут cкачать?
MAGNET ссылка
MAGNET ссылка


Скачать .torrent

16 KB

Статус: проверено DHT
Скачан: торрент - 130 раз, раздача полностью - 3 раз
Размер: 1,47 GB
Оценка:  - (Голосов: 0)
Поблагодарили: 2
Поделиться ссылкой на эту раздачу с друзьями:
В контактеFacebookОдноклассникиTwitterLivejournalМой МирLiveinternet
 

 
Показать сообщения:    


Вы не можете начинать темы
Вы не можете отвечать на сообщения
Вы не можете редактировать свои сообщения
Вы не можете удалять свои сообщения
Вы не можете голосовать в опросах
Вы не можете прикреплять файлы к сообщениям
Вы можете скачивать файлы