Loading...
Error

Скачать Побег невозможен / No Escape (Мартин Кэмпбелл) [1994, Фантастика, боевик, триллер, драма, DVDRip] [MVO]+[AVO] [Михалёв] торрент без регистрации

 
Статистика раздачи
Размер:  1,93 GB   |    Скачан:  147 раз
Сидов:  1  [  0 KB/s  ]  
 
Автор Сообщение

Marsianka

[] 

Информация о фильме
Название: Побег невозможен
Оригинальное название: No Escape
Год выхода: 1994
Жанр: Фантастика, боевик, триллер, драма
Режиссер: Мартин Кэмпбелл
В ролях: Рэй Лиотта, Лэнс Хенриксен, Стюарт Уилсон, Кевин Диллон, Кевин Дж. О`Коннор, Дон Хендерсон, Иэн МакНис, Джек Шеферд, Майкл Лернер, Эрни Хадсон


О фильме:
В 2022 году начальник одной из колоний создал совершенную тюрьму будущего. У нее нет ни стен, ни надзирателей, ни камер. Однако убежать оттуда невозможно. Абсолом затерянный остров, на котором самые опасные заключенные страны предоставлены самим себе. Навсегда отрезанные от цивилизации, они живут по законам первобытного общества. Одни уже мало чем отличаются от животных, другие еще пытаются сохранить человеческий облик. Капитан морской пехоты Джон Роббинс попал на Абсолом после того, как отказался выполнять несправедливый приказ. И он единственный из заключенных, кто решил доказать всем, что совершенных тюрем не бывает
Рейтинг R - Детям до 17 лет обязательно присутствие родителей
Рейтинг R получают фильмы, в содержании которых обязательно содержится материал, предназначенный только для взрослой аудитории. Родителям рекомендуется хорошо подумать, прежде чем посмотреть такой фильм вместе со своими детьми.
Фильм, получивший рейтинг R, скорее всего содержит сексуальные сцены, эпизоды с употреблением наркотиков, нецензурную брань, фрагменты с насилием и т.д.
Общее
Полное имя : D:3Pobeg.Nevozmozhen.1994.XviD.DVDRip.ExKinoRay.avi
Формат : AVI
Формат/Информация : Audio Video Interleave
Размер файла : 1,93 Гбайт
Продолжительность : 1 ч. 53 м.
Общий поток : 2433 Кбит/сек
Режиссёр : Rip by Enigma-Vladislav71
Программа кодирования : VirtualDubModRus 1.5.10.2 (build 2540/release)
Библиотека кодирования : VirtualDubMod build 2540/release
Правообладатель : exkinoray
Примечание : 30.03.2012

Видео
Идентификатор : 0
Формат : MPEG-4 Visual
Профиль формата : Advanced Simple@L5
Параметр BVOP формата : 1
Параметр QPel формата : Нет
Параметр GMC формата : Без точки перехода
Параметр матрицы формата : Default (MPEG)
Идентификатор кодека : XVID
Идентификатор кодека/Подсказка : XviD
Продолжительность : 1 ч. 53 м.
Битрейт : 1451 Кбит/сек
Ширина : 720 пикселей
Высота : 400 пикселей
Соотношение сторон : 16:9
Частота кадров : 25,000 кадров/сек
Цветовое пространство : YUV
Субдискретизация насыщенности : 4:2:0
Битовая глубина : 8 бит
Тип развёртки : Прогрессивная
Метод сжатия : С потерями
Бит/(Пиксели*Кадры) : 0.201
Размер потока : 1,15 Гбайт (60%)
Библиотека кодирования : XviD 1.2.1 (UTC 2008-12-04)

Аудио #1
Идентификатор : 1
Формат : AC-3
Формат/Информация : Audio Coding 3
Расширение режима : CM (complete main)
Идентификатор кодека : 2000
Продолжительность : 1 ч. 53 м.
Вид битрейта : Постоянный
Битрейт : 192 Кбит/сек
Каналы : 2 канала
Расположение каналов : Front: L R
Частота : 48,0 КГц
Битовая глубина : 16 бит
Метод сжатия : С потерями
Размер потока : 156 Мбайт (8%)
Выравнивание : Разделение по промежуткам
Продолжительность промежутка : 40 мс. (1,00 видеокадр)
Время предзагрузки промежутка : 500 мс.

Аудио #2
Идентификатор : 2
Формат : AC-3
Формат/Информация : Audio Coding 3
Расширение режима : CM (complete main)
Идентификатор кодека : 2000
Продолжительность : 1 ч. 53 м.
Вид битрейта : Постоянный
Битрейт : 192 Кбит/сек
Каналы : 2 канала
Расположение каналов : Front: L R
Частота : 48,0 КГц
Битовая глубина : 16 бит
Метод сжатия : С потерями
Размер потока : 156 Мбайт (8%)
Выравнивание : Разделение по промежуткам
Продолжительность промежутка : 40 мс. (1,00 видеокадр)
Время предзагрузки промежутка : 500 мс.

Аудио #3
Идентификатор : 3
Формат : AC-3
Формат/Информация : Audio Coding 3
Расширение режима : CM (complete main)
Идентификатор кодека : 2000
Продолжительность : 1 ч. 53 м.
Вид битрейта : Постоянный
Битрейт : 384 Кбит/сек
Каналы : 6 каналов
Расположение каналов : Front: L C R, Side: L R, LFE
Частота : 48,0 КГц
Битовая глубина : 16 бит
Метод сжатия : С потерями
Размер потока : 312 Мбайт (16%)
Выравнивание : Разделение по промежуткам
Продолжительность промежутка : 40 мс. (1,00 видеокадр)
Время предзагрузки промежутка : 500 мс.

Аудио #4
Идентификатор : 4
Формат : AC-3
Формат/Информация : Audio Coding 3
Профиль формата : Dolby Digital
Расширение режима : CM (complete main)
Идентификатор кодека : 2000
Продолжительность : 1 ч. 53 м.
Вид битрейта : Постоянный
Битрейт : 192 Кбит/сек
Каналы : 2 канала
Расположение каналов : Front: L R
Частота : 48,0 КГц
Битовая глубина : 16 бит
Метод сжатия : С потерями
Размер потока : 156 Мбайт (8%)
Выравнивание : Разделение по промежуткам
Продолжительность промежутка : 40 мс. (1,00 видеокадр)
Время предзагрузки промежутка : 500 мс.


Страна: США, Columbia Pictures Corporation, Pacific Western, Platinum Pictures (III)
Продолжительность: 01:53:35
Перевод: Профессиональный многоголосый (R5 / Первый канал) / Авторский одноголосый (Михалёв)
Дата релиза: 30.03.2012

Файл
Кодек: XviD
Качество: DVDRip
Видео: 1451 Кбит/с, 720x400
Звук: ПМ (R5) (AC3, 2 ch, 192 Кбит/с), ПМ (Первый канал) (AC3, 2 ch, 192 Кбит/с), АО (Михалёв) (AC3, 6 ch, 384 Кбит/с), английский (AC3, 2 ch, 192 Кбит/с)

Семпл Релиз от:

Авторы релиза:



Скачать Побег.невозможен.No.Escape.(Мартин.Кэмпбелл).[1994.Фантастика.боевик.триллер.драма.DVDRip].[MVO]+[AVO].[Михалёв].torrent без регистрации
Золото ЗОЛОТАЯ РАЗДАЧА! СКАЧАННОЕ НЕ ЗАСЧИТЫВАЕТСЯ! Золото
Дата: Зарегистрирован   [ Тип: внутренний ] Как тут cкачать?
MAGNET ссылка
MAGNET ссылка


Скачать .torrent

20 KB

Статус: проверено DHT
Скачан: торрент - 147 раз, раздача полностью - 45 раз
Размер: 1,93 GB
Оценка:  - (Голосов: 0)
Поблагодарили: 1
Поделиться ссылкой на эту раздачу с друзьями:
В контактеFacebookОдноклассникиTwitterLivejournalМой МирLiveinternet
 

 
Показать сообщения:    


Вы не можете начинать темы
Вы не можете отвечать на сообщения
Вы не можете редактировать свои сообщения
Вы не можете удалять свои сообщения
Вы не можете голосовать в опросах
Вы не можете прикреплять файлы к сообщениям
Вы можете скачивать файлы