Loading...
Error

Скачать Фантомы / Phantoms (Джо Чаппелль) [1998 г., Ужасы, фантастика, триллер, DVDRip-АVC] торрент без регистрации

 
Статистика раздачи
Размер:  1,45 GB   |    Скачан:  169 раз
Сидов:  1  [  0 KB/s  ]  
 
Автор Сообщение

durik

[] 

Фантомы / Phantoms

Информация о фильме
Название: Фантомы
Оригинальное название: Phantoms
Год выхода: 1998
Жанр: ужасы, фантастика, триллер
Режиссер: Джо Чаппелль
В ролях: Бен Аффлек, Питер ОТул, Роуз МакГоун, Джоэнна Гоуинг, Лив Шрайбер, Никки Кэтт, Клифтон Пауэлл, Рик Отто, Валери Чоу, Адам Нельсон

О фильме:
Некая страшная сила, дремлющая в недрах земли, однажды пробуждается от сна. Это зловещее Нечто, способное уничтожить целые цивилизации, выбирает себе первую жертву маленький миролюбивый городок Сноуфилд в штате Колорадо.

В одночасье сотни его жителей умирают ужасной смертью, а горстка оставшихся в живых людей, среди которых две молодые девушки, местный шериф со своим заместителем и известный журналист, вступают в отчаянную схватку со злом. Теперь в их руках судьба человечества

Страна: США
Продолжительность: 1:32:16
Перевод: Профессиональный (многоголосый, закадровый)
+ оригинальная английская дорожка

Файл
Формат: MKV
Кодек: XviD
Качество: DVDRip-АVC
Видео: 720х384, 23,976 fps, 1686 kbps,
Звук:
1.AC3, 48,0 КГц , 6 ch, 384 Кбит/сек
2.AC3, 48,0 КГц , 2 ch, 128 Кбит/сек
Субтитры: русские (отключаемые)
Формат : Matroska
Версия формата : Version 2
Размер файла : 1,45 Гбайт
Продолжительность : 1 ч. 32 м.
Общий поток : 2243 Кбит/сек
Дата кодирования : UTC 2012-03-31 20:20:22
Программа кодирования : mkvmerge v5.3.0 ('I could have danced') built on Feb 9 2012 10:38:07
Библиотека кодирования : libebml v1.2.3 + libmatroska v1.3.0

Видео
Идентификатор : 1
Формат : MPEG-4 Visual
Профиль формата : Advanced Simple@L5
Параметр BVOP формата : Да
Параметр QPel формата : Нет
Параметр GMC формата : Без точки перехода
Параметр матрицы формата : Default (H.263)
Идентификатор кодека : XVID
Идентификатор кодека/Подсказка : XviD
Продолжительность : 1 ч. 32 м.
Битрейт : 1686 Кбит/сек
Ширина : 720 пикселей
Высота : 384 пикселя
Соотношение сторон : 1,875
Частота кадров : 23,976 кадра/сек
Цветовое пространство : YUV
Субдискретизация насыщенности : 4:2:0
Битовая глубина : 8 бит
Тип развёртки : Прогрессивная
Метод сжатия : С потерями
Бит/(Пиксели*Кадры) : 0.254
Размер потока : 1,09 Гбайт (75%)
Библиотека кодирования : XviD 1.2.0.dev47 (UTC 2006-11-01)
Default : Да
Forced : Нет

Аудио #1
Идентификатор : 2
Формат : AC-3
Формат/Информация : Audio Coding 3
Расширение режима : CM (complete main)
Режим смешивания : Header stripping
Идентификатор кодека : A_AC3
Продолжительность : 1 ч. 32 м.
Вид битрейта : Постоянный
Битрейт : 384 Кбит/сек
Каналы : 6 каналов
Расположение каналов : Front: L C R, Side: L R, LFE
Частота : 48,0 КГц
Битовая глубина : 16 бит
Метод сжатия : С потерями
Размер потока : 253 Мбайт (17%)
Default : Да
Forced : Нет

Аудио #2
Идентификатор : 3
Формат : AC-3
Формат/Информация : Audio Coding 3
Расширение режима : CM (complete main)
Режим смешивания : Header stripping
Идентификатор кодека : A_AC3
Продолжительность : 1 ч. 32 м.
Вид битрейта : Постоянный
Битрейт : 128 Кбит/сек
Каналы : 2 канала
Расположение каналов : Front: L R
Частота : 48,0 КГц
Битовая глубина : 16 бит
Метод сжатия : С потерями
Размер потока : 84,5 Мбайт (6%)
Default : Нет
Forced : Нет

Текст
Идентификатор : 4
Формат : UTF-8
Идентификатор кодека : S_TEXT/UTF8
Идентификатор кодека/Информация : UTF-8 Plain Text
Default : Да
Forced : Нет



Скачать Фантомы.Phantoms.(Джо.Чаппелль).[1998.г.Ужасы.фантастика.триллер.DVDRip-АVC].torrent без регистрации
Золото ЗОЛОТАЯ РАЗДАЧА! СКАЧАННОЕ НЕ ЗАСЧИТЫВАЕТСЯ! Золото
Дата: Зарегистрирован   [ Тип: внутренний ] Как тут cкачать?
MAGNET ссылка
MAGNET ссылка


Скачать .torrent

29 KB

Статус: проверено DHT
Скачан: торрент - 169 раз, раздача полностью - 27 раз
Размер: 1,45 GB
Оценка:  5 (Голосов: 1)
Поблагодарили: 4
Поделиться ссылкой на эту раздачу с друзьями:
В контактеFacebookОдноклассникиTwitterLivejournalМой МирLiveinternet
 

 
Показать сообщения:    


Вы не можете начинать темы
Вы не можете отвечать на сообщения
Вы не можете редактировать свои сообщения
Вы не можете удалять свои сообщения
Вы не можете голосовать в опросах
Вы не можете прикреплять файлы к сообщениям
Вы можете скачивать файлы