Loading...
Error

Скачать В поле зрения / Person of Interest (Сезон 1 полный) (Ричард Дж. Льюис, Дэвид Семел) [2011, Триллер, драма, HDTVRip] [MVO] (LostFilm) торрент без регистрации

 
Статистика раздачи
Размер:  10,84 GB   |    Скачан:  304 раза
Сидов:  1  [  0 KB/s  ]  
 
Автор Сообщение

leon030982

[] 

Подозреваемый / В поле зрения / Person of Interest
Год выпуска: 2011
Страна: США

Жанр: Драма, Триллер
Продолжительность: ~00:42:00
Перевод: Профессиональный многоголосый закадровый(LostFilm)
Субтитры: Нет
Режиссёр: Ричард Дж. Льюис, Дэвид Семел
В ролях:
Джеймс Кэвизел, Майкл Эмерсон, Stanislav Shkilnyi, Узиманн, Тараджи П. Хенсон, Кевин Чэпмен, Куртеней Тейлор, Крис Чок, Жермен Кроуфорд, Брайан Д’Арси Джеймс и др.
Описание:
Предполагаемо погибший бывший агент ЦРУ Риз объединяется с таинственным миллионером чтобы предотвращать преступления. Подготовка Риза в проведении операций под прикрытием привлекает внимание миллионера Финча, гения-программиста, который изобрел программу, позволяющую предсказывать преступные склонности людей на базе анализа поведения. Используя последние достижения техники, эти двое часто преступают закон, используя навыки Риза и бесконечное богатство Финча, и останавливают преступников еще до совершения преступления. Действия Риза привлекают к себе внимание детектива Картер из отдела убийств и полицейского Фуско, которого Риз использует в своих целях. Риз и Финч понимают, что правильный человек с правильной информацией в нужное время и в нужном месте может изменить все.

Качество: HDTVRip
Формат: AVI

Видео кодек: XviD
Аудио кодек: MP3
Видео: 704x400 (16:9), 23.976 fps, ~1450 kbps avg, 0.212 bit/pixel
Аудио Rus: 48 kHz, 2/0 (L,R) ch, ~128 kbps

Озвучка: Студия "LostFilm"

Первый сезон завершен
Общее
Полное имя : D:\Person.of.Interest.S01.rus.LostFilm\Person.of.Interest.S01E01.rus.LostFilm.TV.avi
Формат : AVI
Формат/Информация : Audio Video Interleave
Размер файла : 493 Мбайт
Продолжительность : 43 м.
Общий поток : 1569 Кбит/сек
Программа кодирования : Nandub v1.0rc2
Библиотека кодирования : Nandub build 1853/release
Видео

Идентификатор : 0
Формат : MPEG-4 Visual
Профиль формата : Advanced Simple@L5
Параметр BVOP формата : 1
Параметр QPel формата : Нет
Параметр GMC формата : Без точки перехода
Параметр матрицы формата : Выборочная
Идентификатор кодека : XVID
Идентификатор кодека/Подсказка : XviD
Продолжительность : 43 м.
Битрейт : 1428 Кбит/сек
Ширина : 704 пикс.
Высота : 400 пикс.
Соотношение сторон : 16:9
Частота кадров : 23,976 кадр/сек
Цветовое пространство : YUV
Подвыборка цветности : 4:2:0
Битовая глубина : 8 бит
Тип развёртки : Прогрессивная
Метод сжатия : С потерями
Бит/(Пиксели*Кадры) : 0.212
Размер потока : 449 Мбайт (91%)
Библиотека кодирования : XviD 64
Аудио
Идентификатор : 1
Формат : MPEG Audio
Версия формата : Version 1
Профиль формата : Layer 3
Режим : Joint stereo
Расширение режима : MS Stereo
Идентификатор кодека : 55
Идентификатор кодека/Подсказка : MP3
Продолжительность : 43 м.
Вид битрейта : Постоянный
Битрейт : 128 Кбит/сек
Каналы : 2 канала
Частота : 48,0 КГц
Метод сжатия : С потерями
Задержка видео : 1 мс.
Размер потока : 40,2 Мбайт (8%)
Выравнивание : Соединение по промежуткам
Продолжительность промежутка : 24 мс. (0,58 видеокадр)
Время предзагрузки промежутка : 481 ms



Скачать В.поле.зрения.Person.of.Interest.(Сезон.1.полный).(Ричард.Дж.Льюис.Дэвид.Семел).[2011.Триллер.драма.HDTVRip].[MVO].(LostFilm).torrent без регистрации
Золото ЗОЛОТАЯ РАЗДАЧА! СКАЧАННОЕ НЕ ЗАСЧИТЫВАЕТСЯ! Золото
Дата: Зарегистрирован   [ Тип: внутренний ] Как тут cкачать?
MAGNET ссылка
MAGNET ссылка


Скачать .torrent

56 KB

Статус: проверено DHT
Скачан: торрент - 304 раз, раздача полностью - 788 раз
Размер: 10,84 GB
Оценка:  5 (Голосов: 5)
Поблагодарили: 13
Поделиться ссылкой на эту раздачу с друзьями:
В контактеFacebookОдноклассникиTwitterLivejournalМой МирLiveinternet
 

 
Показать сообщения:    


Вы не можете начинать темы
Вы не можете отвечать на сообщения
Вы не можете редактировать свои сообщения
Вы не можете удалять свои сообщения
Вы не можете голосовать в опросах
Вы не можете прикреплять файлы к сообщениям
Вы можете скачивать файлы