Loading...
Error

Скачать Король кикбоксеров / Не отступать и не сдаваться 4 / Тигр Каратэ 4 / The King of the Kickboxers / No Retreat, No Surrender 4 / Karate Tiger 4 (Лукас Лоу) [1990, боевик, DVDRip] [DVO] + [VO] торрент без регистрации

 
Статистика раздачи
Размер:  831 MB   |    Скачан:  302 раза
Сидов:  1  [  0 KB/s  ]  
 
Автор Сообщение

leon030982

[] 

Король кикбоксеров / Не отступать и не сдаваться 4 / Тигр Каратэ 4 / The King of the Kickboxers / No Retreat, No Surrender 4 / Karate Tiger 4
Страна: США, Гонконг
Жанр: боевик, криминал, спорт
Год выпуска: 1990
Продолжительность: 01:33:39
Перевод 1: Профессиональный (двухголосый закадровый) Людмила Гнилова и Дмитрий Полонский
Перевод 2: Одноголосый закадровый
Cубтитры: нет
Режиссер: Лукас Лоу

В ролях: Лорен Аведон, Ричард Джэкел, Дон Страуд, Билли Блэнкс, Шерри Роуз, Уильям Лонг мл., Дэвид Майкл Стерлинг, Кит Кук, Онг Су Хань, Джерри Тримбл
Описание: После победы на турнире по кикбоксингу в Таиланде старший брат Джейка был вероломно убит человеком по имени Хан… Прошло 10 лет. Джейк работает в полиции Нью-Йорка. И тогда Интерпол обращается с просьбой подобрать сотрудника для выполнения секретной операции в Таиланде, начальник Джейка рекомендует именно его кандидатуру. Джейк должен изображать кикбоксера и попасть на съемки фильма, где актеров убивают по-настоящему; съемки, на которых у Джейка нет шансов выжить. А звездой этих фильмов является не кто иной, как Хан! Джейк сует голову прямо в пасть льва: он должен не только разоблачить производителей фильмов, но и отомстить убийце брата. И лишь в финальном смертельном поединке Джейк и Хан определят, кто должен носить титул «Короля кикбоксеров».
Личная оценка:8 из 10. (Классика жанра)
Качество видео: DVDRip спасибо Kino-profan
Формат видео: AVI
Видео: 592x432 (1.37:1), 25 fps, XviD build 64 ~975 kbps avg, 0.15 bit/pixel
Аудио 1: 48 kHz, MPEG Layer 3, 2 ch, ~128.00 kbps avg двухголоска спасибо _brill_
Аудио 2: 48 kHz, MPEG Layer 3, 2 ch, ~128.00 kbps avg одноголоска Отдельно
General
Complete name : D:\Релизы\Король кикбоксеров\(1990) Король кикбоксеров (The King of the Kickboxers) DVO.DVDRip.XviD.avi
Format : AVI
Format/Info : Audio Video Interleave
File size : 746 MiB
Duration : 1h 33mn
Overall bit rate : 1 113 Kbps
Writing application : VirtualDubMod 1.5.10.3 | www.virtualdub-fr.org || (build 2550/release)
Writing library : VirtualDubMod build 2550/release
Video
ID : 0
Format : MPEG-4 Visual
Format profile : Advanced Simple@L5
Format settings, BVOP : 1
Format settings, QPel : No
Format settings, GMC : No warppoints
Format settings, Matrix : Custom
Codec ID : XVID
Codec ID/Hint : XviD
Duration : 1h 33mn
Bit rate : 976 Kbps
Width : 592 pixels
Height : 432 pixels
Display aspect ratio : 1.370
Frame rate : 25.000 fps
Color space : YUV
Chroma subsampling : 4:2:0
Bit depth : 8 bits
Scan type : Progressive
Compression mode : Lossy
Bits/(Pixel*Frame) : 0.153
Stream size : 654 MiB (88%)
Writing library : XviD 64
Audio
ID : 1
Format : MPEG Audio
Format version : Version 1
Format profile : Layer 3
Mode : Joint stereo
Mode extension : MS Stereo
Codec ID : 55
Codec ID/Hint : MP3
Duration : 1h 33mn
Bit rate mode : Constant
Bit rate : 128 Kbps
Channel(s) : 2 channels
Sampling rate : 48.0 KHz
Compression mode : Lossy
Stream size : 85.7 MiB (11%)
Alignment : Aligned on interleaves
Interleave, duration : 40 ms (1.00 video frame)
Interleave, preload duration : 504 ms
Writing library : LAME3.99r
Encoding settings : -m j -V 4 -q 2 -lowpass 17 -b 128



Скачать Король.кикбоксеров.Не.отступать.и.не.сдаваться.4.Тигр.Каратэ.4.The.King.of.the.Kickboxers.No.Retreat.No.Surrender.4.Karate.Tiger.4.(Лукас.Лоу).[1990.боевик.DVDRip].[DVO].+.[VO].torrent без регистрации
Золото ЗОЛОТАЯ РАЗДАЧА! СКАЧАННОЕ НЕ ЗАСЧИТЫВАЕТСЯ! Золото
Дата: Зарегистрирован   [ Тип: внутренний ] Как тут cкачать?
MAGNET ссылка
MAGNET ссылка


Скачать .torrent

17 KB

Статус: проверено DHT
Скачан: торрент - 302 раз, раздача полностью - 116 раз
Размер: 831 MB
Оценка:  - (Голосов: 0)
Поблагодарили: 4
Поделиться ссылкой на эту раздачу с друзьями:
В контактеFacebookОдноклассникиTwitterLivejournalМой МирLiveinternet
 

 
Показать сообщения:    


Вы не можете начинать темы
Вы не можете отвечать на сообщения
Вы не можете редактировать свои сообщения
Вы не можете удалять свои сообщения
Вы не можете голосовать в опросах
Вы не можете прикреплять файлы к сообщениям
Вы можете скачивать файлы