Loading...
Error

Скачать Анжелика, маркиза ангелов / Angеlique - marquise des anges (Бернар Бордери) [1964, мелодрама, приключения, история, ..., DVDRip-AVC] [MVO]+[Dub]+[Sub] торрент без регистрации

 
Статистика раздачи
Размер:  1,65 GB   |    Скачан:  144 раза
Сидов:  1  [  0 KB/s  ]  
 
Автор Сообщение

Marsianka

[] 

Анжелика, маркиза ангелов / Angelique, marquise des anges

Год выпуска: 1964
Страна: Франция , Италия , Германия (ФРГ)
Жанр: мелодрама, приключения, история, ...
Продолжительность: 01:56:36
Перевод: Профессиональный (многоголосый закадровый) русский (НТВ)
Профессиональный (дублированный) русский (СССР)
Профессиональный (дублированный) английский
Субтитры: Russian (UTF-8), Russian (UTF-8), English (UTF-8) Spanish (UTF-8)

Режиссер: Бернар Бордери
Сценарий: Клод Брюле, Бернар Бордери, Франсис Кон, ...
Продюсер: Франсис Кон
Оператор: Анри Персен
Композитор: Мишель Мань
Художник: Рене Мулар, Розин Деламар
Монтаж: Кристиан Гудин


В ролях: Мишель Мерсье (Michele Mercier), Робер Оссейн (Robert Hossein), Жан Рошфор (Jean Rochefort), Клод Жиро (Claude Giraud), Джулиано Джемма (Giuliano Gemma), Шарль Ренье (Charles Regnier), Жак Тожа (Jacques Toja), Мадлен ЛеБо (Madeleine LeBeau), Жан Топар (Jean Topart), Бернар Воринже (Bernard Woringer), Филипп Лемэр (Philippe Lemaire), Жан Озенн (Jean Ozenne), Франсуа Мэтр (Fran—ois Maistre), Робер Порт (Robert Porte), Эчика Шуро (Etchika Choureau), Дениз Прованс (Denise Provence), Рената Эверт (Renate Ewert), Женевьев Фонтанель (Genevieve Fontanel), Жак Кастело (Jacques Castelot), Ив Барсак (Yves Barsacq)

Дублёры: Роза Макагонова (Angelique Sance de Monteloup), Аркадий Толбузин (Jeoffrey de Peyrac), Феликс Яворский (Desgrez), Евгений Жариков (Nicolas), Александр Белявский (Louis XIV), Валентин Куклик (Monsieur), Алексей Алексеев ( L'archeveque de Toulouse)

Описание: Анжелика, необыкновенно красивая бедная аристократка вынуждена выйти замуж за Жоффрея де Пейрака. Несмотря на его внешность она со временем полюбила его. Влюбленные живут счастливо в своем замке, пока однажды к ним не приезжает король. Восхищенный красотой Анжелики Людовик XIV хочет сделать ее своей наложницей...
Зрители: СССР 44.1 млн
Премьера (мир): 8 декабря 1964, ...
Релиз на DVD: 14 июня 2011, «Дивайс», ...

Релиз группы:


Качество: DVDRip
Формат: MKV
Видео кодек: AVC
Аудио кодеk: AC3
Видео: 720x304 (2.35:1), 23.976 fps, AVC, 999 Kbps
Аудио: Аудио #1: AC3, 192 Kbps, 48.0 KHz, 2 ch Russian (MVO)
Аудио #2: AC3, 448 Kbps, 48.0 KHz, 6 ch Russian (DUP)
Аудио #3: AC3, 192 Kbps, 48.0 KHz, 2 ch French (Original)
Аудио #4: AC3, 192 Kbps, 48.0 KHz, 2 ch English (DUP)

General
Complete name : Angеlique - marquise des anges 1964.mkv
Format : Matroska
File size : 1.65 GiB
Duration : 1h 56mn
Overall bit rate : 2 026 Kbps
Encoded date : UTC 2012-04-02 14:16:19
Writing application : mkvmerge v5.2.1 ('A Far Off Place') built on Jan 2 2012 23:21:10
Writing library : libebml v1.2.3 + libmatroska v1.3.0

Video
ID : 1
Format : AVC
Format/Info : Advanced Video Codec
Format profile : High@L4.1
Format settings, CABAC : Yes
Format settings, ReFrames : 4 frames
Format settings, GOP : N=15
Muxing mode : Container profile=Unknown@4.1
Codec ID : V_MPEG4/ISO/AVC
Duration : 1h 56mn
Bit rate : 999 Kbps
Width : 720 pixels
Height : 304 pixels
Display aspect ratio : 2.35:1
Frame rate : 23.976 fps
Color space : YUV
Chroma subsampling : 4:2:0
Bit depth : 8 bits
Scan type : Progressive
Bits/(Pixel*Frame) : 0.190
Stream size : 802 MiB (47%)
Title : Видео
Writing library : x264 core 122 r2184 5c85e0a
Encoding settings : cabac=1 / ref=4 / deblock=1:-3:-2 / analyse=0x3:0x133 / me=umh / subme=10 / psy=1 / psy_rd=1.00:0.15 / mixed_ref=1 / me_range=32 / chroma_me=1 / trellis=2 / 8x8dct=1 / cqm=0 / deadzone=21,11 / fast_pskip=0 / chroma_qp_offset=-3 / threads=3 / sliced_threads=0 / nr=0 / decimate=1 / interlaced=0 / bluray_compat=0 / constrained_intra=0 / bframes=8 / b_pyramid=2 / b_adapt=2 / b_bias=0 / direct=3 / weightb=1 / open_gop=0 / weightp=2 / keyint=240 / keyint_min=23 / scenecut=40 / intra_refresh=0 / rc_lookahead=50 / rc=2pass / mbtree=1 / bitrate=999 / ratetol=1.0 / qcomp=0.80 / qpmin=0 / qpmax=51 / qpstep=4 / cplxblur=20.0 / qblur=0.5 / ip_ratio=1.40 / aq=1:1.00
Language : French
Color primaries : BT.470-6 System B, BT.470-6 System G, BT.601-6 625, BT.1358 625, BT.1700 625 PAL, BT.1700 625 SECAM
Transfer characteristics : BT.470-6 System B, BT.470-6 System G
Matrix coefficients : BT.470-6 System B, BT.470-6 System G, BT.601-6 625, BT.1358 625, BT.1700 625 PAL, BT.1700 625 SECAM, IEC 61966-2-4 601

Audio #1
ID : 2
Format : AC-3
Format/Info : Audio Coding 3
Mode extension : CM (complete main)
Codec ID : A_AC3
Duration : 1h 56mn
Bit rate mode : Constant
Bit rate : 192 Kbps
Channel(s) : 2 channels
Channel positions : Front: L R
Sampling rate : 48.0 KHz
Bit depth : 16 bits
Video delay : 16ms
Stream size : 160 MiB (9%)
Title : Аудио 1
Language : Russian

Audio #2
ID : 3
Format : AC-3
Format/Info : Audio Coding 3
Mode extension : CM (complete main)
Codec ID : A_AC3
Duration : 1h 56mn
Bit rate mode : Constant
Bit rate : 448 Kbps
Channel(s) : 6 channels
Channel positions : Front: L C R, Side: L R, LFE
Sampling rate : 48.0 KHz
Bit depth : 16 bits
Video delay : 16ms
Stream size : 374 MiB (22%)
Title : Аудио 2
Language : Russian

Audio #3
ID : 4
Format : AC-3
Format/Info : Audio Coding 3
Mode extension : CM (complete main)
Codec ID : A_AC3
Duration : 1h 56mn
Bit rate mode : Constant
Bit rate : 192 Kbps
Channel(s) : 2 channels
Channel positions : Front: L R
Sampling rate : 48.0 KHz
Bit depth : 16 bits
Video delay : 16ms
Stream size : 160 MiB (9%)
Title : Аудио 3
Language : French

Audio #4
ID : 5
Format : AC-3
Format/Info : Audio Coding 3
Mode extension : CM (complete main)
Codec ID : A_AC3
Duration : 1h 56mn
Bit rate mode : Constant
Bit rate : 192 Kbps
Channel(s) : 2 channels
Channel positions : Front: L R
Sampling rate : 48.0 KHz
Bit depth : 16 bits
Video delay : 16ms
Stream size : 160 MiB (9%)
Title : Аудио 4
Language : English

Text #1
ID : 6
Format : UTF-8
Codec ID : S_TEXT/UTF8
Codec ID/Info : UTF-8 Plain Text
Title : Субтитры 1
Language : Russian

Text #2
ID : 7
Format : UTF-8
Codec ID : S_TEXT/UTF8
Codec ID/Info : UTF-8 Plain Text
Title : Субтитры 2
Language : Russian

Text #3
ID : 8
Format : UTF-8
Codec ID : S_TEXT/UTF8
Codec ID/Info : UTF-8 Plain Text
Title : Субтитры 3
Language : English

Text #4
ID : 9
Format : UTF-8
Codec ID : S_TEXT/UTF8
Codec ID/Info : UTF-8 Plain Text
Title : Субтитры 4
Language : Spanish

Menu
00:00:00.000 : en:WHERE'S AHGELIQUE?
00:05:34.300 : en:A TIGRESS
00:10:02.967 : en:DEADLY POISOH
00:15:07.000 : en:A FINE FAMILY
00:20:40.467 : en:LOVE ME
00:24:31.168 : en:NEW WIFE
00:31:22.335 : en:TAKING HER HAND
00:37:17.502 : en:SHARING SECRETS
00:43:13.502 : en:MAKING GOLD
00:48:55.802 : en:FINDING HOPE
00:54:17.835 : en:A DUEL
00:58:44.502 : en:SPECIAL VISIT
01:04:25.969 : en:TAKING OVER
01:09:30.002 : en:HELD CAPTIVE
01:15:53.169 : en:LOYAL SUBJECTS
01:22:40.469 : en:COUNTESS TRAP
01:27:35.636 : en:STANDING TRIAL
01:35:57.303 : en:CASTING SPELLS
01:39:43.436 : en:HELP ME
01:48:58.469 : en:YOU ARE SAFE NOW
01:56:29.003 : en:THE END
В жизни Мерсье брюнетка. Для роли было изготовлено несколько десятков белокурых париков.

Анжелику могла бы сыграть Бриджитт Бардо, но она в тот момент была занята на съёмках другого фильма.

Премьера фильма состоялась в кабаре «Мулен Руж&raquo. Знаменитая Коко Шанель, приглашённая на показ, аплодировала стоя.

Фильм занимает 31-е место по посещаемости среди зарубежных лент в советском кинопрокате.
За основу взят DVD "Angelique Collection" от Lionsgate. В диск добавлены два русских перевода - многоголосый закадровый НТВ и дублированный, два потока русских субтитров - полный вариант и вариант на отдельные фрагменты, вырезанные советским кинопрокатом (при выборе дублированного перевода). Перерисовано меню выбора звуковых дорожек и субтитров, подредактированы анимационные переходы в меню. Русские дороги и субтитры выбираются из меню. Французкая и английская дороги, английские и испанские субтитры выбираются с пульта. С диска ничего не удалялось.












Продолжение следует!



Скачать Анжелика.маркиза.ангелов.Angеlique.-.marquise.des.anges.(Бернар.Бордери).[1964.мелодрама.приключения.история.DVDRip-AVC].[MVO]+[Dub]+[Sub].torrent без регистрации
Золото ЗОЛОТАЯ РАЗДАЧА! СКАЧАННОЕ НЕ ЗАСЧИТЫВАЕТСЯ! Золото
Дата: Зарегистрирован   [ Тип: внутренний ] Как тут cкачать?
MAGNET ссылка
MAGNET ссылка


Скачать .torrent

17 KB

Статус: проверено DHT
Скачан: торрент - 144 раз, раздача полностью - 12 раз
Размер: 1,65 GB
Оценка:  - (Голосов: 0)
Поблагодарили: 1
Поделиться ссылкой на эту раздачу с друзьями:
В контактеFacebookОдноклассникиTwitterLivejournalМой МирLiveinternet
 

 
Показать сообщения:    


Вы не можете начинать темы
Вы не можете отвечать на сообщения
Вы не можете редактировать свои сообщения
Вы не можете удалять свои сообщения
Вы не можете голосовать в опросах
Вы не можете прикреплять файлы к сообщениям
Вы можете скачивать файлы