Loading...
Error

Скачать Пробуждение / Awake (Сезон 1 полный) (Дэвид Слэйд, Майкл Ваксман) [2012, Драма, WEB-DLRip] [MVO] [Creative Sound] торрент без регистрации

 
Статистика раздачи
Размер:  5,64 GB   |    Скачан:  3362 раза
Сидов:  1  [  0 KB/s  ]  
 
Автор Сообщение

leon030982

[] 


Пробуждение / Awake
Полный 1-ый сезон


Предварительное описание:
Год выпуска: 2012
Страна: США
Жанр: Драма
Продолжительность: ~00:45:00
Перевод: Любительский многоголосый закадровый / Creative Sound
Русские субтитры: нет
Субтитры: отсутствуют
Режиссёр: Джеффри Рейнер, Сара Пиа Андерсон
В ролях:
Джейсон Айзекс, Лаура Аллен, Дилан Миннетт, Даниела Бобадилла, Крис МакГарри, Бэйли Чейз, Терренс Эдвардс, Алисса Милано, Уилмер Вальдеррама, Б.Д. Вонг и др.
Описание:
Детектив Майкл Бриттен приходит в сознание после автокатастрофы с участием его жены Ханны и сына Рекса. Ему сообщают, что супруга погибла, но сыну удалось выжить. Проснувшись на следующее утро, Майкл понимает, что факты повернулись вспять. И чтобы сохранить обоих его близких в живых, ему приходится жить в двух разных реальностях с разными коллегами по работе и разными проблемами в жизни.
Технические данные:
Качество: WEB-DLRip
Формат: AVI
Видео кодек: XviD
Аудио кодек: MP3
Видео: 720x400 (1.80:1), 23.976 fps, XviD build 50 ~1351 kbps avg, 0.20 bit/pixel
Аудио: 48 kHz, MPEG Layer 3, 2 ch, ~192.00 kbps avg
Подготовка релиза:
Озвучивание: AllenWalker, Alex Energy, Nadia ART, Slavianin, Scully
Перевод: notabenoid
EmiLyra, baksssss, Reaper76, Ink134, metallgiver, akum, ellipsiss, var5, Squ2012, adaliv, Seele, GRIBO4EG, krakozyabro4ka, Epic_Win, defying, Bentley, a8a8, serjjoga, Nightsong, DevilInside (модератор), _HighFlyer, ryzhenka, nataliya, Mishutka, masha_makarova (модератор), izolenta (модератор), gentleman, Podruga (главный), Alex_ander, annasss, saske_kun, lost6fox, OksRoks
Работа со звуком: AllenWalker
Работа с видео: AllenWalker
| Сэмпл | КиноПоиск | IMDb |
Format : AVI
Format/Info : Audio Video Interleave
File size : 483 MiB
Duration : 43mn 29s
Overall bit rate : 1 551 Kbps
Writing application : VirtualDubMod 1.5.10.3 | www.virtualdub-fr.org || (build 2550/release)
Writing library : VirtualDub build 32842/release
Video
ID : 0
Format : MPEG-4 Visual
Format profile : Advanced Simple@L5
Format settings, BVOP : Yes
Format settings, QPel : No
Format settings, GMC : No warppoints
Format settings, Matrix : Default (H.263)
Codec ID : XVID
Codec ID/Hint : XviD
Duration : 43mn 29s
Bit rate : 1 350 Kbps
Width : 720 pixels
Height : 400 pixels
Display aspect ratio : 16:9
Frame rate : 23.976 fps
Resolution : 8 bits
Colorimetry : 4:2:0
Scan type : Progressive
Bits/(Pixel*Frame) : 0.195
Stream size : 420 MiB (87%)
Writing library : XviD 1.2.1 (UTC 2008-12-04)
Audio
ID : 1
Format : MPEG Audio
Format version : Version 1
Format profile : Layer 3
Codec ID : 55
Codec ID/Hint : MP3
Duration : 43mn 29s
Bit rate mode : Constant
Bit rate : 192 Kbps
Channel(s) : 2 channels
Sampling rate : 48.0 KHz
Stream size : 59.7 MiB (12%)
Alignment : Split accross interleaves
Interleave, duration : 42 ms (1.00 video frame)
Interleave, preload duration : 500 ms
Внимание! Раздача ведётся путём добавления новых серий; при каждом добавлении создаётся новый торрент. Чтобы начать докачку новой серии, пользователям необходимо сделать следующее:
(1) остановить скачивание,
(2) удалить старый торрент у себя из клиента (старые серии удалять не надо),
(3) скачать новый торрент и запустить его у себя в клиенте вместо старого, при этом указать клиенту путь в старую папку куда и должно происходить скачивание новых серий.
Ваш клиент при этом должен произвести хеширование (проверку) старой папки (если не производит сам - помогите ему сделать это), и будет докачивать только те серии которых у вас ещё нет. Старые серии при этом не удаляются, а продолжают раздаваться!
Eсли вы уже удалили старые серии, то предотвратить повторную закачку старых серий можно, отжав галочку в соответствующих местах при запуске нового торрента. По возможности, желательно не удалять старые серии как можно дольше чтобы релизёр не столько продолжал раздавать старые серии, а смог сконцентрироваться на новых.

Сезон завершен



Скачать Пробуждение.Awake.(Сезон.1.полный).(Дэвид.Слэйд.Майкл.Ваксман).[2012.Драма.WEB-DLRip].[MVO].[Creative.Sound].torrent без регистрации
Золото ЗОЛОТАЯ РАЗДАЧА! СКАЧАННОЕ НЕ ЗАСЧИТЫВАЕТСЯ! Золото
Дата: Зарегистрирован   [ Тип: внутренний ] Как тут cкачать?
MAGNET ссылка
MAGNET ссылка


Скачать .torrent

16 KB

Статус: проверено DHT
Скачан: торрент - 3362 раз, раздача полностью - 0 раз
Размер: 5,64 GB
Оценка:  - (Голосов: 0)
Поблагодарили: 3
Поделиться ссылкой на эту раздачу с друзьями:
В контактеFacebookОдноклассникиTwitterLivejournalМой МирLiveinternet
 

 
Показать сообщения:    


Вы не можете начинать темы
Вы не можете отвечать на сообщения
Вы не можете редактировать свои сообщения
Вы не можете удалять свои сообщения
Вы не можете голосовать в опросах
Вы не можете прикреплять файлы к сообщениям
Вы можете скачивать файлы