Loading...
Error

Скачать Пробуждение / Awake (Сезон 1 полный)(Джеффри Рейнер, Сара Пиа Андерсон)[2012 г., Драма, WEB-DLRip] [400р] [LostFilm] торрент без регистрации

 
Статистика раздачи
Размер:  10,95 GB   |    Скачан:  133 раза
Сидов:  1  [  0 KB/s  ]  
 
Автор Сообщение

leon030982

[] 

Пробуждение / Awake
Год выпуска: 2012
Страна: США

Жанр: драма
Продолжительность: ~ 45 мин
Перевод: Профессиональный многоголосный закадровый(LostFilm)
Русские субтитры: рус, англ
Режиссер: Джеффри Рейнер, Сара Пиа Андерсон
В ролях:
Джейсон Айзекс, Лаура Аллен, Дилан Миннетт, Даниела Бобадилла, Крис МакГарри, Бэйли Чейз, Терренс Эдвардс, Алисса Милано, Уилмер Вальдеррама, Б.Д. Вонг и др.
Описание:
Детектив Майкл Бриттен приходит в сознание после автокатастрофы с участием его жены Ханны и сына Рекса. Ему сообщают, что супруга погибла, но сыну удалось выжить. Проснувшись на следующее утро, Майкл понимает, что факты повернулись вспять. И чтобы сохранить обоих его близких в живых, ему приходится жить в двух разных реальностях с разными коллегами по работе и разными проблемами в жизни.

Качество: WEB-DLRip
Формат: AVI

Видео кодек: XviD
Аудио кодек: AC3
Видео: 720x400 (1.80:1), 23.976 fps, XviD build 65 ~1998 kbps avg, 0.29 bit/pixel
Аудио Rus: 48 kHz, AC3 Dolby Digital, 3/2 (L,C,R,l,r) + LFE ch, ~384.00 kbps avg
Аудио Eng: 48 kHz, AC3 Dolby Digital, 3/2 (L,C,R,l,r) + LFE ch, ~384.00 kbps avg
Озвучка: LostFilm
Работа со звуком: Nez

Рип: ЛП


General
Complete name : F:\ФТП 2\Work\LostFilm\Awake Season 1 LostFilm\Awake.s01e01.rus.eng.avi
Format : AVI
Format/Info : Audio Video Interleave
File size : 858 MiB
Duration : 43mn 7s
Overall bit rate : 2 782 Kbps
Writing application : VirtualDubMod 1.5.10.2 (build 2540/release)
Writing library : VirtualDubMod build 2540/release
Video

ID : 0
Format : MPEG-4 Visual
Format profile : Advanced Simple@L5
Format settings, BVOP : 1
Format settings, QPel : No
Format settings, GMC : No warppoints
Format settings, Matrix : Default (MPEG)
Codec ID : XVID
Codec ID/Hint : XviD
Duration : 43mn 7s
Bit rate : 2 000 Kbps
Width : 720 pixels
Height : 400 pixels
Display aspect ratio : 16:9
Frame rate : 23.976 fps
Color space : YUV
Chroma subsampling : 4:2:0
Bit depth : 8 bits
Scan type : Progressive
Compression mode : Lossy
Bits/(Pixel*Frame) : 0.290
Stream size : 617 MiB (72%)
Writing library : XviD 65
Audio #1
ID : 1
Format : AC-3
Format/Info : Audio Coding 3
Mode extension : CM (complete main)
Codec ID : 2000
Duration : 43mn 7s
Bit rate mode : Constant
Bit rate : 384 Kbps
Channel(s) : 6 channels
Channel positions : Front: L C R, Side: L R, LFE
Sampling rate : 48.0 KHz
Bit depth : 16 bits
Compression mode : Lossy
Stream size : 118 MiB (14%)
Alignment : Split accross interleaves
Interleave, duration : 42 ms (1.00 video frame)
Interleave, preload duration : 500 ms
Audio #2
ID : 2
Format : AC-3
Format/Info : Audio Coding 3
Mode extension : CM (complete main)
Codec ID : 2000
Duration : 43mn 7s
Bit rate mode : Constant
Bit rate : 384 Kbps
Channel(s) : 6 channels
Channel positions : Front: L C R, Side: L R, LFE
Sampling rate : 48.0 KHz
Bit depth : 16 bits
Compression mode : Lossy
Stream size : 118 MiB (14%)
Alignment : Split accross interleaves
Interleave, duration : 42 ms (1.00 video frame)
Interleave, preload duration : 500 ms
Пилот (Pilot)
Коротышка (The Little Guy)
Виновен (Guilty)
Разные судьбы (Kate Is Enough)
СЕЗОН ЗАВЕРШЕН



Скачать Пробуждение.Awake.(Сезон.1.полный)(Джеффри.Рейнер.Сара.Пиа.Андерсон)[2012.г.Драма.WEB-DLRip].[400р].[LostFilm].torrent без регистрации
Золото ЗОЛОТАЯ РАЗДАЧА! СКАЧАННОЕ НЕ ЗАСЧИТЫВАЕТСЯ! Золото
Дата: Зарегистрирован   [ Тип: внутренний ] Как тут cкачать?
MAGNET ссылка
MAGNET ссылка


Скачать .torrent

30 KB

Статус: проверено DHT
Скачан: торрент - 133 раз, раздача полностью - 3 раз
Размер: 10,95 GB
Оценка:  - (Голосов: 0)
Поблагодарили: 1
Поделиться ссылкой на эту раздачу с друзьями:
В контактеFacebookОдноклассникиTwitterLivejournalМой МирLiveinternet
 

 
Показать сообщения:    


Вы не можете начинать темы
Вы не можете отвечать на сообщения
Вы не можете редактировать свои сообщения
Вы не можете удалять свои сообщения
Вы не можете голосовать в опросах
Вы не можете прикреплять файлы к сообщениям
Вы можете скачивать файлы