Loading...
Error

Скачать Рок-н-рольщик / Rocknrolla (Гай Ричи) [2008, боевик, триллер, криминал, BDRip-AVC] [DUB] торрент без регистрации

 
Статистика раздачи
Размер:  2,18 GB   |    Скачан:  185 раз

Полного источника не было: 20 минут

 
Автор Сообщение

Jenek

[] 

Рок-н-рольщик / Rocknrolla (2008) BDRip-AVC от PowerTracker

Жанр: боевик, триллер, криминал
Страна: США , Великобритания
Режиссер: Гай Ричи
В ролях: Нонсо Анози, Шарлотта Армер, Джемма Артертон, Дэвид Барк-Джоунс, Джофф Белл, Джерард Батлер, Джэми Кэмпбелл Бауэн, Идрис Эльба, Том Харди, Мэтт Кинг, Дэвид Леон, Энди Линден, Лудакрис

Сюжет фильма: Фильм окунет вас в опасный мир коррупции и жизни криминальных отбросов современного Лондона, где недвижимость потеснила такого внушительного лидера торгового рынка, как наркотики, а самыми активными предпринимателями стали преступные группировки. Но каждому, кто захочет проворачивать там свои дела, будь то мелкая сошка Раз-два или русский теневой миллиардер Юрий Омович, придется сначала договориться с одним и тем же человеком Ленни Коулом.

Мировая премьера: 4 сентября 2008
Российская премьера: 29 января 2009, «Каро-Премьер»



Продолжительность: 01:54:19
Качество видео: BDRip-AVC
Видео: кодек: x264, размер кадра: 1024x426, битрейт: 1700 кб/с, bit/pixel: 0.163
Аудио #1: язык: Русский , перевод: дублированный (дубляж), кодек: AC3 5.1, битрейт: 320.00 кб/с
Аудио #2: язык: Русский , перевод: одноголосный закадровый (Гоблин), кодек: AC3 5.1, битрейт: 320.00 кб/с
Аудио #3: язык: Украинский , перевод: многоголосый закадровый, кодек: AC3 5.1, битрейт: 256.00 кб/с
Аудио #4: язык: Английский , перевод: оригинал, кодек: AC3 2.0, битрейт: 128.00 кб/с


&
Общее
Уникальный идентификатор : 202239953022307551145974076172198763996 (0x9825FF869BC7E69A834511F461185DDC)
Полное имя : D:RocknRolla.2008.BDRip-AVC.PT.mkv
Формат : Matroska
Версия формата : Version 2
Размер файла : 2,18 Гбайт
Продолжительность : 1 ч. 54 м.
Общий поток : 2724 Кбит/сек
Название фильма : Рок-н-рольщик / Rocknrolla (2008) BDRip-AVC rip by rulya74
Дата кодирования : UTC 2012-04-01 04:52:18
Программа кодирования : mkvmerge v5.2.1 ('A Far Off Place') built on Jan 2 2012 23:21:10
Библиотека кодирования : libebml v1.2.3 + libmatroska v1.3.0

Видео
Идентификатор : 1
Формат : AVC
Формат/Информация : Advanced Video Codec
Профиль формата : High@L4.1
Параметр CABAC формата : Да
Параметр ReFrames формата : 10 кадров
Идентификатор кодека : V_MPEG4/ISO/AVC
Продолжительность : 1 ч. 54 м.
Битрейт : 1700 Кбит/сек
Ширина : 1024 пикселя
Высота : 426 пикселей
Соотношение сторон : 2,40:1
Частота кадров : 23,976 кадра/сек
Цветовое пространство : YUV
Субдискретизация насыщенности : 4:2:0
Битовая глубина : 8 бит
Тип развёртки : Прогрессивная
Бит/(Пиксели*Кадры) : 0.163
Размер потока : 1,31 Гбайт (60%)
Библиотека кодирования : x264 core 120 r2164 da19765
Настройки программы : cabac=1 / ref=10 / deblock=1:-3:-3 / analyse=0x3:0x113 / me=umh / subme=9 / psy=1 / psy_rd=1.00:0.00 / mixed_ref=1 / me_range=48 / chroma_me=1 / trellis=2 / 8x8dct=1 / cqm=0 / deadzone=21,11 / fast_pskip=1 / chroma_qp_offset=-2 / threads=4 / sliced_threads=0 / nr=0 / decimate=1 / interlaced=0 / bluray_compat=0 / constrained_intra=0 / bframes=11 / b_pyramid=2 / b_adapt=1 / b_bias=0 / direct=3 / weightb=1 / open_gop=0 / weightp=2 / keyint=240 / keyint_min=22 / scenecut=40 / intra_refresh=0 / rc=2pass / mbtree=0 / bitrate=1700 / ratetol=1.0 / qcomp=0.60 / qpmin=10 / qpmax=51 / qpstep=4 / cplxblur=20.0 / qblur=0.5 / ip_ratio=1.40 / pb_ratio=1.30 / aq=1:1.00
Default : Да
Forced : Нет

Аудио #1
Идентификатор : 2
Формат : AC-3
Формат/Информация : Audio Coding 3
Расширение режима : CM (complete main)
Идентификатор кодека : A_AC3
Продолжительность : 1 ч. 54 м.
Вид битрейта : Постоянный
Битрейт : 320 Кбит/сек
Каналы : 6 каналов
Расположение каналов : Front: L C R, Side: L R, LFE
Частота : 48,0 КГц
Битовая глубина : 16 бит
Метод сжатия : С потерями
Размер потока : 262 Мбайт (12%)
Заголовок : Дубляж
Язык : Russian
Default : Да
Forced : Нет

Аудио #2
Идентификатор : 3
Формат : AC-3
Формат/Информация : Audio Coding 3
Расширение режима : CM (complete main)
Идентификатор кодека : A_AC3
Продолжительность : 1 ч. 54 м.
Вид битрейта : Постоянный
Битрейт : 320 Кбит/сек
Каналы : 6 каналов
Расположение каналов : Front: L C R, Side: L R, LFE
Частота : 48,0 КГц
Битовая глубина : 16 бит
Метод сжатия : С потерями
Размер потока : 262 Мбайт (12%)
Заголовок : Гоблин
Язык : Russian
Default : Нет
Forced : Нет

Аудио #3
Идентификатор : 4
Формат : AC-3
Формат/Информация : Audio Coding 3
Расширение режима : CM (complete main)
Идентификатор кодека : A_AC3
Продолжительность : 1 ч. 54 м.
Вид битрейта : Постоянный
Битрейт : 256 Кбит/сек
Каналы : 6 каналов
Расположение каналов : Front: L C R, Side: L R, LFE
Частота : 48,0 КГц
Битовая глубина : 16 бит
Метод сжатия : С потерями
Размер потока : 209 Мбайт (9%)
Заголовок : Многоголосый
Язык : Ukrainian
Default : Нет
Forced : Нет

Аудио #4
Идентификатор : 5
Формат : AC-3
Формат/Информация : Audio Coding 3
Расширение режима : CM (complete main)
Идентификатор кодека : A_AC3
Продолжительность : 1 ч. 54 м.
Вид битрейта : Постоянный
Битрейт : 128 Кбит/сек
Каналы : 2 канала
Расположение каналов : Front: L R
Частота : 48,0 КГц
Битовая глубина : 16 бит
Метод сжатия : С потерями
Размер потока : 105 Мбайт (5%)
Заголовок : Оригинал
Язык : English
Default : Нет
Forced : Нет

Меню
00:00:00.000 : en:00:00:00.000
00:05:10.101 : en:00:05:10.101
00:08:48.903 : en:00:08:48.903
00:12:34.420 : en:00:12:34.420
00:15:28.427 : en:00:15:28.427
00:18:35.865 : en:00:18:35.865
00:23:05.509 : en:00:23:05.509
00:28:17.905 : en:00:28:17.905
00:34:02.832 : en:00:34:02.832
00:38:55.750 : en:00:38:55.750
00:44:27.373 : en:00:44:27.373
00:47:09.035 : en:00:47:09.035
00:51:28.669 : en:00:51:28.669
00:57:48.548 : en:00:57:48.548
01:00:41.513 : en:01:00:41.513
01:03:11.496 : en:01:03:11.496
01:06:21.978 : en:01:06:21.978
01:11:38.294 : en:01:11:38.294
01:16:00.264 : en:01:16:00.264
01:22:12.427 : en:01:22:12.427
01:26:02.866 : en:01:26:02.866
01:29:50.302 : en:01:29:50.302
01:32:45.185 : en:01:32:45.185
01:36:05.510 : en:01:36:05.510
01:40:54.548 : en:01:40:54.548
01:43:23.030 : en:01:43:23.030
01:45:26.153 : en:01:45:26.153
01:48:22.121 : en:01:48:22.121



Скачать Рок-н-рольщик.Rocknrolla.(Гай.Ричи).[2008.боевик.триллер.криминал.BDRip-AVC].[DUB].torrent без регистрации
Золото ЗОЛОТАЯ РАЗДАЧА! СКАЧАННОЕ НЕ ЗАСЧИТЫВАЕТСЯ! Золото
Дата: Зарегистрирован   [ Тип: внутренний ] Как тут cкачать?
MAGNET ссылка
MAGNET ссылка


Скачать .torrent

11 KB

Статус: проверено DHT
Скачан: торрент - 185 раз, раздача полностью - 180 раз
Размер: 2,18 GB
Оценка:  - (Голосов: 0)
Поблагодарили: 4
Поделиться ссылкой на эту раздачу с друзьями:
В контактеFacebookОдноклассникиTwitterLivejournalМой МирLiveinternet
 

 
Показать сообщения:    


Вы не можете начинать темы
Вы не можете отвечать на сообщения
Вы не можете редактировать свои сообщения
Вы не можете удалять свои сообщения
Вы не можете голосовать в опросах
Вы не можете прикреплять файлы к сообщениям
Вы можете скачивать файлы