Loading...
Error

Скачать Закон любви / Banovic Strahinja (Ватрослав Мимица) [1981 г., Исторический, DVDRip] [Dub] (Rus) + [Sub] (Rus) торрент без регистрации

 
Статистика раздачи
Размер:  1,31 GB   |    Скачан:  189 раз
Сидов:  1  [  0 KB/s  ]  
 
Автор Сообщение

leon030982

[] 

Закон любви / Banovic Strahinja
Страна: Югославия, ФРГ
Жанр: Исторический
Год выпуска: 1981
Продолжительность: 01:37:47
Перевод: Профессиональный (дублированный)
Доп. инфо о переводе: к/с им. М. Горького
Cубтитры: русские (под непереведенные фрагменты)
Режиссер: В. Мимица

В ролях: Франко Неро, Раде Сербеджия, Саня Вейнович, Драган Николич, Герт Фрёбе, Петра Питерс, Гизела Факкельдей

Описание: По мотивам предания "Банович Страхиня".
Осень 1388 года. За год до Битвы на Косовом поле. Орды бандитов вторгаются в Сербию через южные границы королевства. Когда Банович Страхиня отправляется на охоту, турки нападают на его дом в поисках золота, зверски убивают мужчин и женщин сербского витязя, и уводят в плен его молодую жену. И витязь Страхиня клянется - за всё отомстить...

Сэмпл: http://multi-up.com/679205
Качество видео: DVDRip
Формат видео: AVI
Видео: 1780 Кбит/сек, 688*512 (4:3), в 25,000 кадров/сек, MPEG-4 Visual (XviD) (Advanced Simple@L5) (BVOP2)
Аудио: Русский, 128 Кбит/сек, 48,0 КГц, 2 канала, MPEG Audio (MP3) (Version 1) (Layer 3)
Формат субтитров: softsub (SRT)
Доп. информация о субтитрах: русские
Формат : AVI
Формат/Информация : Audio Video Interleave
Размер файла : 1,31 Гбайт
Продолжительность : 1 ч. 37 м.
Общий поток : 1917 Кбит/сек
Видео
Идентификатор : 0
Формат : MPEG-4 Visual
Профиль формата : Advanced Simple@L5
Параметр BVOP формата : 2
Параметр QPel формата : Нет
Параметр GMC формата : Без точки перехода
Параметр матрицы формата : Default (H.263)
Идентификатор кодека : XVID
Идентификатор кодека/Подсказка : XviD
Продолжительность : 1 ч. 37 м.
Битрейт : 1780 Кбит/сек
Ширина : 688 пикселей
Высота : 512 пикселей
Соотношение сторон : 4:3
Частота кадров : 25,000 кадров/сек
Цветовое пространство : YUV
Субдискретизация насыщенности : 4:2:0
Битовая глубина : 8 бит
Тип развёртки : Прогрессивная
Метод сжатия : С потерями
Бит/(Пиксели*Кадры) : 0.202
Размер потока : 1,22 Гбайт (93%)
Библиотека кодирования : XviD 1.2.1 (UTC 2008-12-04)
Аудио
Идентификатор : 1
Формат : MPEG Audio
Версия формата : Version 1
Профиль формата : Layer 3
Идентификатор кодека : 55
Идентификатор кодека/Подсказка : MP3
Продолжительность : 1 ч. 37 м.
Source_Duration/String : 1 ч. 37 м.
Вид битрейта : Постоянный
Битрейт : 128 Кбит/сек
Каналы : 2 канала
Частота : 48,0 КГц
Метод сжатия : С потерями
Размер потока : 89,5 Мбайт (7%)
Выравнивание : Соединение по промежуткам
Продолжительность промежутка : 40 мс. (1,00 видеокадр)



Скачать Закон.любви.Banovic.Strahinja.(Ватрослав.Мимица).[1981.г.Исторический.DVDRip].[Dub].(Rus).+.[Sub].(Rus).torrent без регистрации
Золото ЗОЛОТАЯ РАЗДАЧА! СКАЧАННОЕ НЕ ЗАСЧИТЫВАЕТСЯ! Золото
Дата: Зарегистрирован   [ Тип: внутренний ] Как тут cкачать?
MAGNET ссылка
MAGNET ссылка


Скачать .torrent

27 KB

Статус: проверено DHT
Скачан: торрент - 189 раз, раздача полностью - 17 раз
Размер: 1,31 GB
Оценка:  - (Голосов: 0)
Поблагодарили: 1
Поделиться ссылкой на эту раздачу с друзьями:
В контактеFacebookОдноклассникиTwitterLivejournalМой МирLiveinternet
 

 
Показать сообщения:    


Вы не можете начинать темы
Вы не можете отвечать на сообщения
Вы не можете редактировать свои сообщения
Вы не можете удалять свои сообщения
Вы не можете голосовать в опросах
Вы не можете прикреплять файлы к сообщениям
Вы можете скачивать файлы