Loading...
Error

Скачать Лекарство от любви / Lekarstwo Na Milosc (Ян Батори) [1966, Комедия, DVDRip] [Dub] (Советский дубляж) торрент без регистрации

 
Статистика раздачи
Размер:  1,37 GB   |    Скачан:  170 раз
Сидов:  1  [  0 KB/s  ]  
 
Автор Сообщение

leon030982

[] 

Лекарство от любви / Lekarstwo Na Milosc
Страна: Польша
Жанр: Комедия
Год выпуска: 1966
Продолжительность: 01:30:25
Перевод: Профессиональный (дублированный)
Cубтитры: нет
Режиссер: Ян Батори

В ролях: Калина Едрусик, Кристина Сенкевич, Веньчислав Глиньский, Анджей Лапицкий, Мечислав Чехович, Яцек Федорович, Рышард Рончевский, Хенрик Сташевский, Роман Сыкала, Тадеуш Возьняк

Описание: Забавная история о том, как случайно пересеклись пути неудачно влюбленной Иоанны и, до сего момента, по-видимому, удачливой группы фальшивомонетчиков. Что произошло в результате этого, и каким способом "любительница рисковать" Иоанна "излечилась" от несчастной любви.

Доп. информация: Советская прокатная версия фильма.
Сэмпл: http://multi-up.com/679938/
Качество видео: DVDRip
Формат видео: AVI
Видео: XviD build 50, 688x528 (1.30:1), 25 fps, 1960 kbps avg
Аудио: AC3 Dolby Digital, 48 kHz, 2/0 (L,R) ch, 192 kbps avg
General
Complete name : D:\НА РУТРЕКЕР\Lekarstvo.ot.lyubvi.1966.XviD.DVDRip.Dego.avi
Format : AVI
Format/Info : Audio Video Interleave
File size : 1.37 GiB
Duration : 1h 30mn
Overall bit rate : 2 162 Kbps
Writing application : VirtualDubMod 1.5.10.2 (build 2540/release)
Writing library : VirtualDubMod build 2540/release
Video
ID : 0
Format : MPEG-4 Visual
Format profile : AdvancedSimple@L5
Format settings, BVOP : Yes
Format settings, QPel : No
Format settings, GMC : No warppoints
Format settings, Matrix : Default (MPEG)
Codec ID : XVID
Codec ID/Hint : XviD
Duration : 1h 30mn
Bit rate : 1 961 Kbps
Width : 688 pixels
Height : 528 pixels
Display aspect ratio : 4/3
Frame rate : 25.000 fps
Resolution : 24 bits
Colorimetry : 4:2:0
Scan type : Progressive
Bits/(Pixel*Frame) : 0.216
Stream size : 1.24 GiB (91%)
Writing library : XviD 1.2.1 (UTC 2008-12-04)
Audio
ID : 1
Format : AC-3
Format/Info : Audio Coding 3
Codec ID : 2000
Duration : 1h 30mn
Bit rate mode : Constant
Bit rate : 192 Kbps
Channel(s) : 2 channels
Channel positions : L R
Sampling rate : 48.0 KHz
Stream size : 124 MiB (9%)
Alignment : Split accross interleaves
Interleave, duration : 40 ms (1.00 video frame)
Interleave, preload duration : 500 ms



Скачать Лекарство.от.любви.Lekarstwo.Na.Milosc.(Ян.Батори).[1966.Комедия.DVDRip].[Dub].(Советский.дубляж).torrent без регистрации
Золото ЗОЛОТАЯ РАЗДАЧА! СКАЧАННОЕ НЕ ЗАСЧИТЫВАЕТСЯ! Золото
Дата: Зарегистрирован   [ Тип: внутренний ] Как тут cкачать?
MAGNET ссылка
MAGNET ссылка


Скачать .torrent

14 KB

Статус: проверено DHT
Скачан: торрент - 170 раз, раздача полностью - 52 раз
Размер: 1,37 GB
Оценка:  - (Голосов: 0)
Поблагодарили: 1
Поделиться ссылкой на эту раздачу с друзьями:
В контактеFacebookОдноклассникиTwitterLivejournalМой МирLiveinternet
 

 
Показать сообщения:    


Вы не можете начинать темы
Вы не можете отвечать на сообщения
Вы не можете редактировать свои сообщения
Вы не можете удалять свои сообщения
Вы не можете голосовать в опросах
Вы не можете прикреплять файлы к сообщениям
Вы можете скачивать файлы