Loading...
Error

Скачать В укромном месте / In a Lonely Place (Николас Рэй) [1950, детектив, DVDRip] [MVO] торрент без регистрации

 
Статистика раздачи
Размер:  1,46 GB   |    Скачан:  138 раз
Сидов:  1  [  0 KB/s  ]  
 
Автор Сообщение

leon030982

[] 

В укромном месте

Год выпуска: 1950
Страна: США
Жанр: детектив
Продолжительность: 01:33:20
Перевод: Профессиональный (многоголосый, закадровый)
Русские субтитры: нет
Режиссер: Николас Рэй

В ролях: Хамфри Богарт /Humphrey Bogart/, Глория Грэм /Gloria Grahame/, Джефф Доннелл /Jeff Donnell/, Карл Бентон Рид /Carl Benton Reid/, Роберт Уорвик /Robert Warwick/, Моррис Энкрам /Morris Ankrum/

Описание: Диксон Стил, талантливый голливудский сценарист, сидит без работы из-за пьянства и язвительного характера. В один роковой вечер он пригласил к себе Милдред, чтобы поговорить о повести, предложенной ему для адаптации, - через какое-то время алкоголь и болтовня девушки так утомили Стила, что он выгнал ее. А утром Милдред нашли мертвой и обезображенной. Все улики указывают на Стила, лишь начинающая старлетка Лорел Грей верит в его невиновность...Исходник:
Качество: DVDRip
Формат: AVI
Видео: 640x480 (4:3), 23,976 fps, XviD ~ 2033 kbps avg, 0.276 bit/pixel
Аудио: 48 kHz, AC3, 2 ch, 192.00 kbps
Общее
Полное имя : V.ukromnom.meste.1950\V.ukromnom.meste.1950.DVDRip.avi
Формат : AVI
Формат/Информация : Audio Video Interleave
Размер файла : 1,46 Гбайт
Продолжительность : 1 ч. 33 м.
Общий поток : 2234 Кбит/сек
Программа кодирования : VirtualDubMod 1.5.10.3 | www.virtualdub-fr.org || (build 2550/release)
Библиотека кодирования : VirtualDubMod build 2550/release
Видео
Идентификатор : 0
Формат : MPEG-4 Visual
Профиль формата : Advanced Simple@L5
Параметр BVOP формата : 1
Параметр QPel формата : Нет
Параметр GMC формата : Без точки перехода
Параметр матрицы формата : Выборочная
Идентификатор кодека : XVID
Идентификатор кодека/Подсказка : XviD
Продолжительность : 1 ч. 33 м.
Битрейт : 2033 Кбит/сек
Ширина : 640 пикселей
Высота : 480 пикселей
Соотношение сторон : 4:3
Частота кадров : 23,976 кадра/сек
Цветовое пространство : YUV
Субдискретизация насыщенности : 4:2:0
Битовая глубина : 8 бит
Тип развёртки : Прогрессивная
Метод сжатия : С потерями
Бит/(Пиксели*Кадры) : 0.276
Размер потока : 1,33 Гбайт (91%)
Библиотека кодирования : XviD 1.2.1 (UTC 2008-12-04)
Аудио
Идентификатор : 1
Формат : AC-3
Формат/Информация : Audio Coding 3
Расширение режима : CM (complete main)
Идентификатор кодека : 2000
Продолжительность : 1 ч. 33 м.
Вид битрейта : Постоянный
Битрейт : 192 Кбит/сек
Каналы : 2 канала
Расположение каналов : Front: L R
Частота : 48,0 КГц
Битовая глубина : 16 бит
Метод сжатия : С потерями
Размер потока : 128 Мбайт (9%)
Выравнивание : Разделение по промежуткам
Продолжительность промежутка : 42 мс. (1,00 видеокадр)
Время предзагрузки промежутка : 500 мс
Раздача от группы:



Скачать В.укромном.месте.In.a.Lonely.Place.(Николас.Рэй).[1950.детектив.DVDRip].[MVO].torrent без регистрации
Золото ЗОЛОТАЯ РАЗДАЧА! СКАЧАННОЕ НЕ ЗАСЧИТЫВАЕТСЯ! Золото
Дата: Зарегистрирован   [ Тип: внутренний ] Как тут cкачать?
MAGNET ссылка
MAGNET ссылка


Скачать .torrent

15 KB

Статус: проверено DHT
Скачан: торрент - 138 раз, раздача полностью - 24 раз
Размер: 1,46 GB
Оценка:  - (Голосов: 0)
Поблагодарили: 1
Поделиться ссылкой на эту раздачу с друзьями:
В контактеFacebookОдноклассникиTwitterLivejournalМой МирLiveinternet
 

 
Показать сообщения:    


Вы не можете начинать темы
Вы не можете отвечать на сообщения
Вы не можете редактировать свои сообщения
Вы не можете удалять свои сообщения
Вы не можете голосовать в опросах
Вы не можете прикреплять файлы к сообщениям
Вы можете скачивать файлы